<?xml version="1.0" standalone="no"?>
<!DOCTYPE svg PUBLIC "-//W3C//DTD SVG 1.1//EN" "http://www.w3.org/Graphics/SVG/1.1/DTD/svg11.dtd" >
<svg xmlns="http://www.w3.org/2000/svg">
<metadata></metadata>
<defs>
<font id="scriptinaregular" horiz-adv-x="442" >
<font-face units-per-em="1000" ascent="800" descent="-200" />
<missing-glyph horiz-adv-x="329" />
<glyph horiz-adv-x="1000" />
<glyph horiz-adv-x="1000" />
<glyph horiz-adv-x="333" />
<glyph horiz-adv-x="346" d="M36 788q-2 -23 8.5 -46t28 -41.5t41 -30.5t48.5 -12q24 0 48.5 8.5t44 24.5t33 39.5t16.5 54.5q1 6 -8 6t-11 -6q-12 -27 -28.5 -43t-33.5 -25t-32 -11.5t-23 -2.5q-9 0 -20.5 2t-26 10t-31 25.5t-35.5 47.5q-3 5 -11 5q-7 0 -8 -5z" />
<glyph horiz-adv-x="286" d="M144 625q27 0 47.5 18t20.5 47q0 27 -19 45.5t-47 18.5q-26 0 -47 -17.5t-21 -44.5t19 -47t47 -20z" />
<glyph horiz-adv-x="143" d="M119 727q0 17 -12.5 29t-29.5 12t-29 -12t-12 -29t12 -28.5t29 -11.5t29.5 11.5t12.5 28.5zM77 695q-14 0 -23 9.5t-9 22.5q0 14 9 23.5t23 9.5t23.5 -9.5t9.5 -23.5q0 -13 -9.5 -22.5t-23.5 -9.5z" />
<glyph unicode="&#xa;" horiz-adv-x="275" d="M28 638q84 72 102 122q3 10 -3 33q-7 23 -15 24q-7 2 -25 -12q-19 -14 -14 -20q5 -12 8.5 -21t2.5 -17q-6 -57 -65 -98q-4 -3 -4 -7q0 -6 7 -6q2 0 6 2zM150 638q84 72 102 122q3 10 -3 33q-7 23 -15 24q-7 2 -25 -12q-19 -14 -14 -20q5 -12 8.5 -21t2.5 -17 q-6 -57 -65 -98q-4 -4 -4 -7q0 -6 7 -6q2 0 6 2z" />
<glyph horiz-adv-x="118" d="M103 -75q-2 11 -9 -1q-15 -20 -27.5 -24.5t-19.5 9.5q-3 6 -4 16t-0.5 22.5t2.5 26t7 24.5q3 8 -0.5 8.5t-8.5 -8.5q-5 -14 -8.5 -31t-4.5 -32.5t0 -28.5t4 -19q5 -11 12.5 -13t15.5 1t14.5 9t10.5 11q5 8 9 -1z" />
<glyph horiz-adv-x="201" d="M91 605q-6 -1 -25 19q-15 15 -30 33q-3 4 -5 3q-3 -2 -3 -6q0 -2 2 -8q57 -81 59 -82q1 -2 35 32q21 19 33.5 30.5t17.5 15.5q3 6 3 10q0 9 -8 2q-23 -18 -43 -30t-36 -19z" />
<glyph unicode="&#xd;" horiz-adv-x="329" />
<glyph horiz-adv-x="409" d="M-42 -78q9 36 76.5 114t192.5 198q113 109 209.5 193t177.5 144q12 9 12 16q0 8 -9 8t-20 -8q-78 -57 -174.5 -143t-214.5 -201q-256 -251 -263 -318q0 -18 2 -24q6 0 11 21z" />
<glyph horiz-adv-x="446" d="M508 101q5 6 8 11.5t3 8.5t-4 2t-13 -10q-14 -13 -40 -32t-56 -38t-59 -34t-48 -19q-9 -2 -20 -2t-18 6t-6.5 19.5t12.5 38.5t15.5 33t5 10.5t3 6t10 20t27 51t52.5 98.5q9 17 4 29.5t-25 14.5h-149q17 28 44.5 67.5t61.5 77.5t72.5 67t79.5 35q23 3 45 -6t39 -26 q3 -2 6.5 0.5t6.5 7t5 9t2 6.5q0 6 -8.5 15.5t-20.5 11.5q-26 4 -54 -0.5t-55.5 -15t-53 -25t-46.5 -30.5q-22 -17 -44 -40t-43 -49t-40.5 -53t-36.5 -52q-12 -2 -23 -1t-22 1q-6 0 -16 0.5t-12 -7.5q-4 -9 5.5 -13.5t17.5 -9.5q7 -5 13 -12.5t-2 -21.5q-27 -50 -65 -121.5 t-84.5 -151.5t-99.5 -162.5t-109.5 -154.5t-114.5 -126.5t-115 -79.5q-58 -25 -108 -22.5t-84.5 26.5t-49 66t-0.5 97q17 66 58 113.5t92 70.5q14 6 13.5 9.5t-14.5 -1.5q-28 -10 -56.5 -28.5t-53.5 -43.5t-43.5 -55t-25.5 -63q-11 -48 3 -93.5t50.5 -75t93.5 -36t132 23.5 q63 25 128.5 85.5t128.5 140t121.5 170.5t109 176.5t90.5 158t65 115.5q5 8 28.5 11t50 2.5t47.5 -3t21 -3.5q-1 -5 -9 -22t-20 -42t-26 -54.5t-26 -58t-20 -54t-8 -41.5q0 -18 9 -30.5t22 -19.5t25.5 -9.5t18.5 0.5q22 10 51.5 28t59 38t54.5 39t37 31z" />
<glyph horiz-adv-x="0" d="M-553 -39q-2 -5 -1.5 -10t2.5 -8.5t5 -4t6 4.5q22 42 49 91.5t55.5 100t56 99t51 89t40.5 69.5t24 41q73 -2 168 5t205 28t233 58t253 96q79 36 127 82t69.5 95.5t18.5 99.5t-26 93.5t-64 77t-96 50t-122 13t-142 -34.5q-71 -29 -136.5 -72t-125 -94t-111.5 -107 t-97 -110q-88 -1 -183 -72q-72 -54 -164 -194h-45q-26 0 -28 -7q-3 -8 5.5 -13.5t17.5 -9.5q16 -10 16 -25q0 -7 -3 -14q-103 -192 -206 -353l-34 2t-35 1q-189 0 -382 -39q-231 -46 -407 -141q-210 -113 -210 -275q0 -95 79 -163q79 -67 204 -67q79 0 163 30 q184 66 390 299q42 48 84.5 101.5t86.5 115.5q143 24 182 66q4 4 4 10q0 7 -3.5 15.5t-9 16.5t-11.5 14t-11 7q-14 2 -28.5 3t-30.5 2q13 20 25 40.5t26 42.5q47 78 93.5 157t89.5 158q5 8 17 8q36 0 65.5 -1t53.5 1q-9 -16 -12 -20.5t-2 -2.5q-23 -39 -47.5 -83.5 t-49 -89.5t-47.5 -88t-42 -79.5t-33 -64t-20 -40.5zM-256 450q30 52 68.5 110.5t84.5 120.5q1 0 1.5 -0.5t1.5 -0.5q28 -17 26 -19q6 0 12 10t6 14q-1 8 -8 14.5t-17 10.5q44 56 94 111t106.5 104t118 90t127.5 68q54 22 111 25.5t108.5 -8t95.5 -36.5t72 -60t37.5 -77.5 t-8 -88.5t-64 -94.5t-130.5 -95.5t-167.5 -79.5t-163.5 -54.5t-154.5 -35t-140.5 -19.5t-121 -8t-96 -1.5zM-1330 -615q-69 -29 -143 -29q-112 0 -196 60q-83 56 -83 144q0 134 208 254q347 202 781 202q14 0 28 -0.5t28 -0.5q-327 -504 -623 -630zM-295 447h-123 q77 109 139 172.5t118 74.5q16 3 34 -2q-62 -79 -105 -144.5t-63 -100.5zM-677 14q18 -2 33 -3.5t29 -3.5q20 -5 20 -19q0 -11 -10 -20q-61 -51 -150 -69q20 28 39.5 56.5t38.5 58.5zM-312 409q1 0 1 3q0 -1 -0.5 -2z" />
<glyph horiz-adv-x="703" d="M223 274q24 7 47 13t45 13q-19 -30 -36 -58t-31 -51t-24 -39t-14 -23q-17 -24 -35 -49.5t-30 -33.5q-1 -1 -3.5 -2t-7.5 1q-18 6 -45 13.5t-46 11.5q-19 5 -25.5 -1.5t1.5 -23.5q1 -5 6 -12.5t12 -15t15 -13t17 -5.5q13 0 26 6.5t18 5.5q16 -6 47.5 -17t72.5 -23 t87.5 -24.5t92 -22.5t87 -16t71.5 -5q22 0 37.5 3.5t26 9t18 12t14.5 14.5q10 11 8 15.5t-16 -8.5q-8 -7 -15.5 -12t-16.5 -8.5t-21 -4.5t-31 -1q-23 0 -56 5.5t-71 14t-78 19.5t-77.5 23t-70.5 24t-55 21q-13 5 -11.5 7t7.5 6q31 16 49.5 38.5t41.5 53.5q38 51 66 95.5 t52 85.5l40 12t39 12q32 8 25 22q-2 9 -23 1l-65 -18q29 50 60 94.5t76 89.5q42 42 75.5 54.5t47.5 3.5q16 -11 17.5 -19.5t5.5 -19.5q4 -15 14 -12.5t12 19.5q2 8 2.5 19t-4.5 24q-7 19 -30 18.5t-51 -11.5t-57 -28.5t-48 -32.5q-20 -15 -42 -38.5t-44 -52t-44.5 -60 t-43.5 -63.5l-100 -28q-38 -9 -33 -25q1 -8 22 -3z" />
<glyph horiz-adv-x="394" d="M431 667q10 14 1.5 25t-22.5 11q-27 0 -32.5 -13.5t-5.5 -29.5q0 -10 -8 -22q-29 -49 -74 -119t-93 -148l-79 -32q-18 -7 -25 -14.5t-5 -13.5q3 -7 21 -1q18 8 35.5 15.5t34.5 15.5q-32 -53 -61 -106t-50.5 -100.5t-33 -88t-8.5 -68.5q5 -33 25 -44t34 -9l10.5 3t7 2.5 t8 4t12.5 7.5q26 14 21 21.5t-28 -5.5q-32 -16 -50.5 -8.5t-14.5 38.5q3 34 18.5 77.5t40 92t55 100t63.5 103.5q15 6 21.5 8.5t8 3t2 1t4.5 2t14.5 6t32.5 13.5q28 12 22 23q-2 9 -22 0l-63 -26l1 1q52 79 101 150.5t81 123.5z" />
<glyph horiz-adv-x="741" d="M265 381q-22 67 -27 135q-1 9 1.5 22t11.5 26t25.5 24t43.5 17q51 12 113 13t121 -4t107.5 -12.5t71.5 -11.5q11 -3 15 -5.5t3.5 -5t-5.5 -5t-12 -5.5q-58 -25 -119 -80t-131 -149q-2 -4 -3 -3.5t-6 -1.5h-16h-26h-25h-16q-7 0 -11 -3t-4.5 -7t2.5 -6.5t9 -2.5h72 q11 0 7.5 -3t-6.5 -8q-19 -27 -45 -60.5t-54 -66t-56 -60.5t-51 -43q-8 -5 -13 -4.5t-10 2.5q-16 6 -41 14t-52 15.5t-53.5 12t-45.5 3.5q-30 0 -38.5 -16t2.5 -34q9 -17 26.5 -28.5t37 -19t38 -11t29.5 -2.5q26 1 51.5 7.5t39.5 15.5q11 6 18 3q24 -9 67 -21.5t94 -24.5 t106 -21t103 -10q22 -1 36.5 -0.5t24.5 3t19 7t21 11.5q13 8 9 12.5t-19 -6.5q-17 -11 -43 -12.5t-48 0.5q-36 3 -77 11t-84 19.5t-85.5 25t-80.5 26.5q-8 2 -7.5 6.5t10.5 9.5q26 12 57.5 41.5t62.5 65t59 72t46 63.5q2 4 4 5t7 1h54q7 0 13 2.5t8.5 5.5t0 6t-11.5 3h-50 q-6 0 -5 3t4 8q31 40 57.5 74.5t52.5 62.5t54 49t63 34q6 4 10 6t9 2q8 0 14.5 2t14.5 6q9 4 11 11.5t-0.5 13.5t-9 9.5t-15.5 0.5q-4 -1 -12.5 -5t-13.5 -4q-28 0 -66 4t-82 9.5t-90.5 11t-90.5 9t-83 3.5t-68 -6q-40 -8 -60.5 -24.5t-29 -35.5t-9 -38t1.5 -31 q1 -12 7 -30.5t14 -38t17 -37t17 -29.5q7 -10 11 -12.5t5 0t0 8t-3 11.5zM32 65q-12 15 -4 21.5t16 3.5q10 -2 28.5 -6.5t39.5 -10.5l42 -12t36 -11q11 -5 6 -8t-14 -6q-18 -6 -40 -6.5t-43 3t-39 12t-28 20.5zM505 712q-6 -1 -25 18q-15 15 -30 33q-3 5 -6 4q-3 -2 -3 -6 q0 -1 2 -9q58 -80 60 -81q1 -2 35 32q20 19 32.5 30.5t17.5 15.5q4 4 4 10q0 9 -8 2q-23 -18 -43 -30t-36 -19z" />
<glyph horiz-adv-x="429" d="M419 338q7 5 8 13.5t-2.5 16t-10 11.5t-14.5 1q-3 -2 -6.5 -6t-8.5 -8q-13 -3 -37.5 -4.5t-51.5 -3t-52 -2t-37 -0.5q-7 0 -9 7t-9 4q-15 -3 -31.5 -9t-27.5 -9q-8 -4 -6.5 -11t7.5 -13.5t13 -11.5t12 -4q15 1 38.5 3.5t49 6t49 7t39.5 5.5q14 5 18.5 -3.5t-6.5 -16.5 q-17 -13 -42.5 -34.5t-54.5 -47.5t-59 -54.5t-55 -54t-43 -46.5t-24 -32q-2 -4 -8.5 -8t-15 -9t-17 -10.5t-12.5 -11.5q-13 -20 -1.5 -27.5t34.5 6.5q21 15 49 26.5t57.5 19.5t56.5 12.5t46 4.5q12 2 22 -0.5t17.5 -7t12 -10.5t5.5 -11q1 -6 4.5 -10t6.5 -5t4.5 2.5 t-0.5 14.5q-4 14 -14.5 30t-27.5 25q-15 7 -37.5 8.5t-47 -1t-48 -9t-39.5 -15.5q-9 -5 -14.5 -2t7.5 14q21 23 62 59.5t87.5 76t90.5 75.5t73 59zM276 480q-6 -1 -25 19q-8 8 -15.5 16.5t-16.5 19.5q-3 4 -6 3q-3 -2 -3 -6q0 -2 2 -10q31 -43 45.5 -64.5t16.5 -22.5 q1 -2 35 35q22 20 34.5 32.5t17.5 16.5q3 4 3 11q0 9 -8 2q-23 -19 -43.5 -32.5t-36.5 -19.5z" />
<glyph unicode=" "  horiz-adv-x="329" />
<glyph unicode="&#x09;" horiz-adv-x="329" />
<glyph unicode="&#xa0;" horiz-adv-x="329" />
<glyph unicode="!" horiz-adv-x="217" d="M121 141q15 27 41.5 77t64.5 124q27 54 49.5 94t39.5 69q1 2 5.5 2.5t9 1.5l9 2t5.5 4q6 9 3 35t-9 27q-10 4 -28 -1t-22 -14q-27 -75 -73.5 -177.5t-112.5 -233.5q-1 -3 -1 -7q0 -11 9 -11q6 0 10 8zM82 18q0 53 -8 61q-2 2 -6 2q-10 0 -25.5 -7.5t-19.5 -12.5 q-3 -4 0 -30q5 -23 7.5 -27.5t9.5 -4.5q12 0 27 6.5t15 12.5z" />
<glyph unicode="&#x22;" horiz-adv-x="288" d="M218 408q64 90 102 138q3 4 3 7q0 19 -23 19q-10 0 -14 -8l-80 -149q-1 -1 -1 -5q0 -3 5 -5t8 3zM323 405q32 45 57.5 79t45.5 58q3 6 3 8q0 19 -23 19q-9 0 -14 -8l-81 -150q-1 -1 -1 -4q0 -4 6 -5q3 -2 7 3z" />
<glyph unicode="#" horiz-adv-x="485" d="M29 43q-7 -11 -7 -17q0 -3 2 -3q5 0 19 20q28 44 50 76.5t38 55.5h111q-54 -87 -81 -132q-7 -11 -7 -17q0 -3 2 -3q7 0 19 20q29 45 51 77.5t37 54.5q10 0 22 0.5t26 0.5h35q5 0 15 6t10 11t-16 5h-78l45 67.5t32 47.5q9 0 19.5 1t22.5 1h32q4 0 14 6t10 10q0 6 -15 6 h-67q42 58 68 94t37 51q13 17 -3 17q-10 0 -17 -5l-66.5 -91t-45.5 -66h-105q47 66 73 101.5t32 43.5q13 17 -3 17q-10 0 -17 -5q-26 -34 -53.5 -73t-58.5 -84h-95q-6 0 -18 -7.5t-12 -11.5q0 -5 12 -5q4 0 14.5 1t27.5 1h57q-25 -39 -43 -68t-31 -49h-88q-3 0 -8 -2t-10 -5 t-9 -6.5t-4 -5.5q0 -4 12 -4q4 0 13.5 0.5t25.5 0.5h55q-26 -44 -46.5 -77t-34.5 -56zM222 313q9 0 22.5 1t31.5 1h52q-28 -43 -46.5 -72t-27.5 -45h-109q39 58 58 86.5z" />
<glyph unicode="$" horiz-adv-x="464" d="M153 46q-3 -4 -10 -4q-54 4 -92 29q-1 2 -5 2q-8 0 -16.5 -6t-8.5 -14q0 -24 104 -39q5 -1 4 -4q-9 -15 -18 -29t-20 -28q-3 -6 -3 -8q0 -4 8 -4q11 0 15 7q26 40 37 59q7 5 5 5q115 0 189 51q47 31 47 78q0 19 -7 33q-13 24 -72 80q-5 5 -1 10q29 50 62 103t71 110 q6 6 8 4q59 4 70 -21q3 -8 11 -8q12 0 12 13q0 6 -3 11q-20 28 -76 28h-3q-1 0 0 1q0 1 1 2q11 16 19 28t14 22q1 1 1 2t1 2q0 4 -6 4q-8 0 -16 -8q-20 -30 -35 -50q-4 -4 -7 -4q-124 -25 -184 -77q-41 -34 -41 -78q0 -54 61 -107q6 -3 -1 -10q-35 -58 -63.5 -104t-51.5 -81 zM284 220q3 5 6 2q15 -15 25 -27t16 -22q18 -32 18 -52q0 -26 -25 -45q-11 -9 -28 -17t-37 -13t-41.5 -6.5t-40.5 0.5q-4 0 -3 4l54 88t56 88zM296 278q-3 -5 -7 -1q-38 43 -38 82q0 14 4.5 26.5t15.5 23.5q38 42 140 66q6 1 7 0l-1 -4q-48 -76 -77.5 -124t-43.5 -69z" />
<glyph unicode="%" horiz-adv-x="686" d="M353 510q-16 14 -33 14q-16 0 -34 -18q-29 0 -32 -8q-4 -14 -3 -18q-2 -5 -14 -20t-32 -41q-29 -35 -39 -70q-5 -23 -5 -37q0 -60 59 -60q12 0 26 3q27 8 50.5 22.5t46.5 37.5q21 20 34 43t21 48q7 36 4 66q-2 6 3.5 9.5t10.5 6.5q4 8 219 8q15 0 14 -1 q-81 -66 -158 -136.5t-152 -148.5q-170 -177 -177 -235q0 -11 0.5 -16.5t1.5 -8.5q6 0 11 21q18 71 217 264q88 86 171 158t163 132q12 7 12 16q0 8 -9 8q-4 0 -10.5 -3.5t-16.5 -8.5q-14 -8 -21 -12.5t-8 -5.5q-29 -14 -38 -14q-71 1 -135 1t-123 1h-5t-8 0.5t-7.5 1.5z M549 241q-39 -13 -74 -57q-29 -38 -43 -84q-5 -20 -5 -35q0 -62 61 -62q14 0 27 4q53 14 95 59q39 40 54 91q8 23 8 45q0 68 -64 62q-27 -3 -59 -23zM603 246q50 3 50 -52q0 -19 -6 -38q-17 -56 -54 -92t-78 -44q-23 -5 -41.5 10.5t-18.5 48.5q0 6 1 12t2 11q10 60 69 111 q38 32 76 33zM339 490q48 1 48 -47q0 -17 -6 -38q-17 -56 -54.5 -92.5t-77.5 -44.5q-23 -5 -41.5 11t-18.5 49q0 5 0.5 11t1.5 12q12 60 70 111q16 14 35 20t43 8z" />
<glyph unicode="&#x26;" horiz-adv-x="646" d="M574 300q21 0 37.5 -0.5t28.5 -1.5q45 -6 45 -43q0 -49 -54 -104q-8 -10 -8 -15q0 -1 2 -1q4 0 13 9q48 45 58 69q5 10 5 24q0 20 -11 38t-26 30q6 1 4 2t-7 2.5t-11 3t-8 3.5q-21 4 -38 4.5t-44 -1.5q-53 1 -115 1h-126t-124.5 -0.5t-109.5 -0.5q36 52 83 80.5t94 40.5 t89 12t66 -4q10 -1 17.5 3t10.5 9.5t0.5 11t-12.5 8.5q-21 5 -42.5 17t-39 31t-28 45t-8.5 59q2 36 19.5 59.5t41.5 36.5t49 15t43 -5q21 -7 33.5 -24t14.5 -38q2 -13 8.5 -13.5t11.5 6.5t7.5 19t-3.5 24q-8 20 -27.5 37t-47.5 18q-26 1 -56 -7.5t-56.5 -25.5t-47 -41.5 t-28.5 -55.5q-6 -26 -2 -47t12.5 -37t19 -27.5t16.5 -18.5q4 -3 0.5 -10.5t-12.5 -10.5q-35 -8 -71.5 -24t-71 -38t-64.5 -48.5t-52 -56.5q-34 -1 -57 -1h-32q-20 -1 -26.5 -3.5t-10.5 -16.5q-2 -6 2 -13t10 -12t12.5 -7.5t10.5 2.5q6 7 11.5 13.5t13.5 9.5q4 2 17 2.5 t33 1.5q-32 -52 -41 -104t3.5 -94.5t45 -70t83.5 -30.5h17t18 1q4 -28 11.5 -52.5t19 -42.5t27 -28t35.5 -8q34 3 62 30t49 60q6 8 11.5 16.5t9.5 17.5q8 15 15 29.5t13 26.5q17 33 35 69.5t34.5 70t30 63t22.5 49.5zM180 190q-14 -29 -20.5 -72t-2.5 -88q-5 1 -11 1 q-5 0 -10 1q-35 4 -59 27t-34 57.5t-6 77t25 84.5q2 5 4.5 9.5t4.5 9.5q34 1 76.5 1.5t85.5 0.5h86h76h57h30q11 0 12.5 -4.5t-3.5 -16.5q-6 -14 -14.5 -29.5t-17.5 -30t-17 -26t-13 -16.5q-17 -18 -42 -42.5t-57.5 -47t-72 -39t-84.5 -17.5q-2 38 2 79.5t13 76.5zM375 9 q-12 -23 -26 -46t-30 -41t-32.5 -30t-33.5 -13t-30.5 8t-23 25.5t-15.5 38.5t-9 48q36 6 66.5 15.5t62.5 29t67.5 52t82.5 84.5zM180 190l8 -3q2 13 0 14.5t-8 -11.5z" />
<glyph unicode="'" horiz-adv-x="178" d="M218 408q64 90 102 138q3 4 3 7q0 19 -23 19q-10 0 -14 -8l-80 -149q-1 -1 -1 -5q0 -3 5 -5t8 3z" />
<glyph unicode="(" horiz-adv-x="409" d="M562 595q-186 -45 -312 -211q-127 -166 -127 -358q0 -60 17 -122q3 -13 14 -13t21.5 9.5t12.5 22.5q1 9 -7.5 14.5t-8.5 7.5q-6 24 -9.5 49t-3.5 51q0 174 116 335q120 165 291 201q15 3 15 10q0 5 -10 5h-5q-2 0 -4 -1z" />
<glyph unicode=")" horiz-adv-x="409" d="M-61 -99q184 45 312 210q126 166 126 358q0 65 -16 123q-3 13 -15 13q-11 0 -21 -9.5t-13 -22.5q-1 -9 8 -14.5t9 -7.5q12 -48 12 -101q0 -88 -28 -171t-87 -163q-121 -165 -291 -201q-14 -3 -14 -10q0 -5 10 -5q5 0 8 1z" />
<glyph unicode="*" horiz-adv-x="363" d="M255 580q2 5 -3 11.5t-23 -4.5q-10 -5 -10 -13t-3 -15q-8 -21 -19 -44.5t-22 -49.5q-19 15 -36 31t-36 24q-9 4 -15.5 2t-10.5 -6.5t-4 -11.5q0 -6 5 -10q3 -5 6 -2.5t4 2.5q21 -10 37.5 -22t35.5 -23q-17 -9 -36.5 -17.5t-38 -16.5t-33.5 -16t-24 -15 q-14 -11 -10.5 -22.5t17.5 -9.5q6 1 5 4.5t1 4.5q24 18 55.5 33t60.5 32q-7 -23 -16 -49t-15 -47.5t-6.5 -34t10.5 -9.5q4 2 7.5 4.5t0.5 2.5q-6 0 -2.5 15.5t11.5 37t18 45t18 40.5q27 -22 46.5 -37t41.5 -32q5 -3 9 1.5t-7 14.5q-15 15 -33.5 30.5t-41.5 35.5 q30 13 70.5 31.5t74.5 36.5q5 3 3.5 8.5t-9.5 0.5q-34 -12 -70 -28t-68 -27q15 32 28 58.5t27 55.5z" />
<glyph unicode="+" horiz-adv-x="418" d="M394 265q7 1 13 7.5t-4 18.5q-5 8 -18 17t-19 10q-5 0 -6 -2t4 -4q10 -4 17 -13q5 -5 5 -9q0 -3 -3.5 -5.5t-8 -4t-8.5 -1.5q-30 -8 -67.5 -10.5t-78.5 -2.5q26 45 54.5 87.5t52.5 74.5q5 7 15 15t18 11q2 1 0.5 3.5t-6.5 1.5q-4 -1 -11 -4t-14.5 -6.5t-13.5 -7.5t-7 -6 q-19 -25 -48 -70t-58 -99q-42 1 -81 4t-70 8q-8 3 -18.5 7t-17.5 10q-1 1 -2 -1t2 -7q3 -3 8 -7.5t10.5 -9.5t10.5 -9t8 -4q23 -3 60 -5t82 -2q-23 -42 -43.5 -84t-31.5 -76q-1 -4 -2 -9t0.5 -8.5t5.5 -5t12 0.5q9 2 24 11t19 15q4 5 2.5 6.5t-4.5 -3.5q-6 -2 -11 -5t-10 -5 q-7 -3 -10 -1.5t-3.5 6t1 10t3.5 9.5q11 31 28 66.5t37 72.5q50 1 98.5 4t84.5 11z" />
<glyph unicode="," horiz-adv-x="178" d="M22 -114q93 78 111 132q1 2 1 8q0 16 -6 34t-14 20q-7 2 -27 -13t-16 -22q7 -14 10.5 -24t2.5 -18q-8 -61 -71 -105q-4 -4 -4 -7q0 -8 7 -8q4 0 6 3z" />
<glyph unicode="-" horiz-adv-x="229" d="M37 166h147q26 0 26 17q0 10 -17 10h-141q-32 0 -32 -18q0 -9 17 -9z" />
<glyph unicode="." horiz-adv-x="178" d="M124 18q0 53 -8 61q-4 2 -6 2q-5 0 -12 -2t-14 -5t-12.5 -6.5t-6.5 -6.5q-3 -4 0 -30q4 -23 7 -27.5t9 -4.5q13 0 28 6.5t15 12.5z" />
<glyph unicode="/" horiz-adv-x="409" d="M-42 -78q9 36 76.5 114t192.5 198q113 109 209.5 193t177.5 144q12 9 12 16q0 8 -9 8t-20 -8q-78 -57 -174.5 -143t-214.5 -201q-256 -251 -263 -318q0 -18 2 -24q6 0 11 21z" />
<glyph unicode="0" horiz-adv-x="541" d="M205 442q-130 -112 -172 -256q-6 -19 -8.5 -36.5t-2.5 -33.5q0 -63 35.5 -96t92.5 -33q13 0 26.5 2t27.5 5q55 15 103.5 44.5t92.5 77.5q82 87 113 188q7 26 11 49t4 43q0 67 -36 100t-95 28q-49 -5 -92 -29q-13 -5 -28.5 -12t-30 -15t-26 -15t-15.5 -11zM392 498 q106 1 106 -116q0 -41 -13 -81q-32 -105 -113 -192q-95 -102 -193 -102q-44 0 -71 30q-16 18 -24 41.5t-8 55.5q0 13 1.5 26t3.5 27q5 27 17.5 57t31.5 62q40 71 97 119q86 73 165 73z" />
<glyph unicode="1" horiz-adv-x="381" d="M196 -2q72 0 101 1t29 12q0 9 -20 7q-30 -3 -119 11q-39 5 -39 25q0 4 2 9t4 11q17 34 51 84.5t85 117.5q50 66 84 105.5t52 53.5q2 11 3.5 19.5t5.5 10.5q17 11 29 18t21 13q7 4 7 14q0 12 -12 12q-5 0 -11 -3q-45 -26 -118.5 -58.5t-178.5 -71.5q-15 -4 -18 -11 q-2 -6 8 -6q4 0 15 3l80 26t81 29q6 2 10 2q7 0 7 -7t-4 -12q-85 -122 -146.5 -216.5t-99.5 -163.5q-48 -2 -80.5 -5t-52.5 -5q-18 -2 -18 -22q0 -11 18 -9q49 6 192 6h32z" />
<glyph unicode="2" horiz-adv-x="497" d="M395 0q23 -2 23 11q0 14 -24 14q-250 0 -250 20q0 7 13 11q58 21 115 52t114 76q142 108 142 203q0 48 -29 83q-17 20 -42.5 32.5t-59.5 14.5q-91 8 -181 -42q-21 -10 -21 -31q0 -5 5 -2q73 41 140 41q11 0 21.5 -1t20.5 -3q46 -10 75 -50q25 -36 19 -68 q-15 -92 -126 -179q-75 -58 -164 -100q-70 -31 -149 -48q-36 -6 -36 -32q0 -13 18 -11q151 12 281 12q56 0 95 -3z" />
<glyph unicode="3" horiz-adv-x="475" d="M410 105q15 27 15 56q0 23 -9 44t-25 36.5t-37 25.5t-46 12q-9 1 -9 7t8 9q138 51 186 125q13 19 13 44q0 61 -79 61q-92 0 -158 -39q-16 -9 -16 -25q0 -8 7 -4q72 34 143 34q44 0 44 -43q0 -23 -14 -45q-12 -21 -35 -40t-56 -39q-71 -41 -129 -41q-9 0 -16.5 -6.5 t-7.5 -12.5q0 -4 7 -4q90 5 136 -31q38 -29 38 -79q0 -11 -2.5 -21.5t-6.5 -21.5q-34 -78 -151 -131q-96 -44 -170 -44q-57 0 -58 31q-2 22 -16 22q-10 0 -17 -11t-7 -22q0 -36 99 -33q87 1 196 47q66 28 109.5 62t63.5 77z" />
<glyph unicode="4" horiz-adv-x="555" d="M239 -90q5 44 56 124q5 9 22.5 33t44.5 63q10 -1 31.5 -1.5t55.5 -0.5q9 0 20 8.5t11 13.5q0 3 -5 2q-13 -3 -98 2q11 18 40.5 58t77.5 103q49 62 86.5 109.5t66.5 80.5q1 1 1 3q0 5 -11 5q-41 0 -59 -23q-75 -101 -136 -184t-109 -149q-1 0 -16 1t-44 3q-59 3 -101 3 q-55 0 -88 -6q25 32 163 141q72 58 126.5 97.5t90.5 61.5q8 4 8 11q0 12 -12 12q-4 0 -6 -1q-38 -23 -88.5 -61.5t-116.5 -92.5t-112 -96t-73 -73q-6 -4 -10.5 -6.5t-9.5 -4.5q-18 -9 -21 -14q-6 -8 -6 -19q0 -16 8 -16q4 0 15 14q11 15 22 17q20 3 55 4.5t88 0.5 q83 0 113 -3q-46 -72 -69.5 -125.5t-26.5 -91.5q-2 -15 8 -15q6 0 8 12z" />
<glyph unicode="5" horiz-adv-x="480" d="M406 77q29 34 29 74t-30 67q-17 16 -43 30.5t-61 29.5q-8 4 -34 14t-72 27q-15 4 -4 23q35 59 107 126q69 2 141 3.5t147 1.5q23 0 23 14q0 6 -10 6h-119q-51 0 -86 1q-7 2 -12 5.5t-8 5.5q-19 8 -30.5 11t-16.5 3q-15 0 -22 -10q-28 -33 -61 -75.5t-71 -96.5 q-23 -32 -23 -44q0 -10 11 -14q154 -39 209 -93q22 -22 22 -54q0 -59 -50 -91q-59 -36 -152 -36q-98 0 -135 42q-3 5 -12 5q-13 0 -24.5 -9t-11.5 -20q0 -21 50 -36q48 -15 102 -15q156 0 247 105z" />
<glyph unicode="6" horiz-adv-x="475" d="M419 95q40 55 40 114q0 72 -67 93q-10 5 -33 5q-82 0 -179 -39q35 53 72.5 98t81.5 84q109 98 210 116q19 4 19 9t-11 5h-6q-3 0 -6 -1q-170 -30 -341 -216q-130 -140 -130 -269q0 -45 20 -72.5t61 -41.5q11 -3 23.5 -5.5t25.5 -2.5q63 0 131 41q29 18 51 38.5t38 43.5z M370 269q38 -18 38 -84q0 -18 -4 -36.5t-13 -36.5q-26 -53 -83 -88q-59 -35 -110 -35q-36 0 -58 19q-28 24 -28 78q0 95 60 167q30 14 63.5 20.5t70.5 6.5q41 0 64 -11z" />
<glyph unicode="7" horiz-adv-x="505" d="M53 -92q-6 27 43 97t159 179l297 290q11 11 11 27q0 28 -21 24q-11 -5 -18.5 -9t-11.5 -7q-15 -3 -20 -2q-89 -2 -159.5 -3.5t-122.5 -2.5q-16 -3 -41 -15q-30 -14 -30 -26q0 -8 8 -8q7 0 12 5q19 7 32 11.5t22 5.5q22 3 108 2q97 -1 130 -6q19 -3 19 -12q0 -5 -4 -8 q-434 -460 -446 -540q-3 -23 13 -23q8 0 15 6.5t5 14.5z" />
<glyph unicode="8" horiz-adv-x="584" d="M481 157q-2 23 -12 52.5t-27 65.5q-15 33 -51 96q263 153 263 183q0 4 -3 4q-5 0 -20 -12q-17 -16 -46 -37t-71 -47t-75 -44t-57 -29q-18 39 -18 72q0 52 46 87q14 11 34.5 15.5t37.5 4.5q30 0 51 -15q6 -4 12.5 -8.5t12.5 -8.5q2 -1 4.5 -2t5.5 -1q9 0 7 20q2 14 -23 24 q-22 12 -44 10q-24 -1 -48 -5.5t-50 -15.5q-55 -20 -81 -52q-17 -19 -17 -50q0 -40 29 -95q-60 -36 -101.5 -62.5t-66.5 -43.5q-51 -36 -82 -70t-44 -64q-11 -30 -11 -58q0 -31 11.5 -54.5t31.5 -40t47 -25t58 -8.5q97 0 198 69q103 73 99 145zM84 122q55 111 265 226 q22 -35 35.5 -57t18.5 -31q16 -31 23 -57.5t7 -50.5q0 -98 -106 -158q-90 -49 -151 -39q-106 18 -106 110q0 31 14 57z" />
<glyph unicode="9" horiz-adv-x="563" d="M165 486q-43 -59 -43 -122q0 -69 66 -90q9 -2 20.5 -4t25.5 -2q94 0 169 37q-65 -111 -163 -192q-106 -87 -209 -105q-20 -5 -20 -11q0 -5 11 -5q7 0 11 1q89 16 175.5 70.5t174.5 148.5q139 154 139 275q0 90 -82 117q-26 8 -51 8q-62 0 -133 -43q-29 -19 -52 -39.5 t-39 -43.5zM411 319q-58 -29 -132 -29q-45 0 -70 15q-35 21 -35 78q0 20 5 41.5t16 44.5q12 27 33.5 49.5t50.5 41.5q58 35 109 35q37 0 60 -20q28 -26 28 -79q0 -98 -65 -177z" />
<glyph unicode=":" horiz-adv-x="230" d="M233 202q0 53 -9 62q-2 2 -5 2q-10 0 -26 -7.5t-19 -13.5q-3 -2 -2.5 -9.5t2.5 -19.5q4 -23 7 -28t9 -5q13 0 28 7t15 12zM124 18q0 53 -8 61q-4 2 -6 2q-5 0 -12 -2t-14 -5t-12.5 -6.5t-6.5 -6.5q-3 -4 0 -30q4 -23 7 -27.5t9 -4.5q13 0 28 6.5t15 12.5z" />
<glyph unicode=";" horiz-adv-x="227" d="M22 -114q93 78 111 132q1 2 1 8q0 16 -6 34t-14 20q-7 2 -27 -13t-16 -22q7 -14 10.5 -24t2.5 -18q-8 -61 -71 -105q-4 -4 -4 -7q0 -8 7 -8q4 0 6 3zM233 202q0 53 -9 62q-2 2 -5 2q-10 0 -26 -7.5t-19 -13.5q-3 -2 -2.5 -9.5t2.5 -19.5q4 -23 7 -28t9 -5q13 0 28 7 t15 12z" />
<glyph unicode="&#x3c;" horiz-adv-x="621" d="M609 529q-19 -6 -53.5 -18t-79 -28t-95 -34.5l-101 -37t-97 -36t-82 -32t-58 -24.5t-23.5 -13q-18 -31 6 -43q14 1 16.5 1.5t8.5 -0.5q14 -3 20 -10q46 -25 101.5 -58.5t108.5 -67.5t99 -63t73 -45q8 -4 21 -5t29 -3q20 -2 30.5 1t16.5 9q2 5 -0.5 8t-6.5 8q-2 -1 -5 0.5 t-10 -0.5q-20 5 -37 7.5t-26 7.5q-16 6 -44 22t-60.5 37t-68 45t-67 46.5t-56 40.5t-35.5 27q-9 7 -11 14t-1 12q0 1 17.5 9t46.5 21.5t65.5 30.5t75 34.5t75 34.5t65.5 30.5t47 21.5t19 8z" />
<glyph unicode="=" horiz-adv-x="461" d="M38 176h79h96q49 0 92.5 0.5t66.5 0.5q30 0 30 14q0 8 -21 8h-324q-37 0 -37 -15q0 -8 18 -8zM77 277h79h96q49 0 92 0.5t66 0.5q30 0 30 15q0 7 -21 7h-323q-38 0 -38 -15q0 -8 19 -8z" />
<glyph unicode="&#x3e;" horiz-adv-x="635" d="M13 8q25 8 77.5 26.5t117.5 41.5t134 48.5t126.5 47.5t95 38t39.5 21q18 31 -7 43q-13 -1 -15.5 -1.5t-8.5 0.5q-8 2 -12 3.5t-9 6.5q-46 25 -101 58.5t-108.5 67.5t-99 63t-73.5 45q-8 3 -20.5 4.5t-28.5 3.5q-20 2 -31 -1.5t-16 -8.5q-2 -5 0.5 -8.5t5.5 -8.5 q2 1 5.5 0t10.5 0q20 -4 36.5 -6.5t25.5 -7.5q16 -6 44 -22t60.5 -37t68 -45.5t67 -46.5t55.5 -40l36 -27q10 -8 12 -14.5t1 -11.5q-1 -1 -31 -15t-75.5 -35t-98.5 -45.5t-98.5 -45.5t-76.5 -35t-32 -14z" />
<glyph unicode="?" horiz-adv-x="429" d="M211 119q0 2 -2.5 7.5t-5.5 13t-4.5 15.5t0.5 15q5 14 17 17q21 7 56 19.5t86 34.5q101 41 139 66q99 55 99 159q0 19 -2.5 38t-9.5 39q-8 28 -23.5 52t-35.5 45q-52 50 -116 50q-9 0 -18 -1t-19 -4q-49 -11 -86 -60q-2 -5 -4 -8.5t-2 -7.5t4 -4q5 0 13 11q25 36 77 36 q25 0 51 -9t48 -25t39 -39.5t26 -51.5q6 -18 8.5 -34.5t2.5 -31.5q0 -106 -151 -185q-41 -21 -99.5 -44t-139.5 -46q-6 -2 -6 -9t4 -17t15 -24q21 -24 32 -24q7 0 7 7zM186 8q1 3 1.5 11t-1.5 22q-3 25 -7.5 28.5t-9.5 3.5q-6 0 -24 -8q-16 -8 -20 -14t-1 -29q4 -22 8 -26.5 t12 -4.5q11 0 25 6t17 11z" />
<glyph unicode="@" horiz-adv-x="910" d="M256 16q32 20 70 47t81 65q88 75 135 130q1 3 4 3q7 0 1 -11q-17 -26 -33.5 -57t-33.5 -68q-28 -60 -42.5 -110.5t-16.5 -92.5q-2 -51 33 -78q32 -26 81 -26q15 0 29.5 2.5t28.5 7.5q27 11 65 32.5t82 52.5q20 14 35 28t31 28q53 57 82 135.5t29 160.5t-28 149.5 t-78.5 116t-121.5 75t-157 26.5q-106 0 -198.5 -40.5t-161.5 -111.5t-108.5 -166.5t-39.5 -206.5q0 -102 35.5 -189.5t98 -151.5t148.5 -100t187 -36q92 0 175 30.5t150 87.5q-24 -16 -58 -31.5t-75 -28t-89 -20.5t-100 -8q-75 0 -140 21t-118 59q-81 60 -125 157 q-20 45 -29 93q-5 22 -8 44.5t-3 44.5v31t1 24.5t2.5 23t3.5 26.5q5 34 15 67t23 65q11 26 24.5 49.5t29.5 45.5q10 15 21.5 28t22.5 27q36 40 82 71q105 70 238 70q77 0 141.5 -24.5t111.5 -68.5t73.5 -105t26.5 -135q0 -75 -25.5 -148.5t-70.5 -129.5q-18 -20 -46 -43.5 t-57.5 -44.5t-57.5 -37.5t-47 -22.5q-35 -12 -70 -12q-78 0 -78 67v10q0 4 1 9q9 58 32.5 122.5t65.5 134.5q26 45 54.5 88.5t57.5 88.5q1 3 -1.5 8t-7.5 5q-2 0 -5 -3q-12 -10 -27 -13q-2 -1 -19 1q-24 9 -48 9q-20 0 -41 -8q-38 -16 -83.5 -47t-96.5 -82 q-111 -111 -111 -183q0 -34 25 -34q13 0 23 7zM273 101q28 66 94 140q41 45 73.5 69.5t68.5 24.5q21 0 33.5 -9t12.5 -20q0 -5 -3 -8q-70 -85 -132.5 -144t-118.5 -95q-8 -5 -15 -5q-18 0 -18 24q0 14 5 23zM868 -204q-21 -24 -50 -48q40 27 50 48z" />
<glyph unicode="A" horiz-adv-x="1118" d="M1076 330q33 -29 33 -53q0 -16 -32 -16t-83 15q12 66 56 214q13 40 32 98.5t45 137.5q2 7 -19 21t-38 14q-8 0 -13 -5q-29 -45 -73 -101t-101 -125q-104 -125 -162 -186q-236 51 -388 51q-34 0 -61.5 -2.5t-50.5 -8.5q-111 -28 -157 -145q-14 -32 -20 -62t-6 -57 q0 -63 34.5 -99t97.5 -35q127 2 320 136q69 49 126.5 97.5t105.5 99.5q67 -16 127 -29t114 -24q-5 -44 -7.5 -81t-2.5 -68q0 -83 16 -116q1 -4 8 -4q18 0 20 15q0 1 -3 3t-7 4t-7.5 4t-3.5 3q-7 21 -7 56q0 34 6 78t17 101q46 -9 73.5 -12.5t38.5 1.5q35 12 29 27 q-13 32 -50 65q-3 2 -5.5 4t-5.5 2q-6 0 -4 -6q0 -7 8 -12zM216 361q22 5 50 7.5t63 2.5q177 0 371 -48q-107 -108 -218 -189q-179 -126 -308 -129q-29 -1 -50 9t-36 29q-26 33 -26 89q0 51 19 101q21 54 54.5 85.5t80.5 42.5zM741 338q78 81 154 171t152 191q5 5 8 7.5 t8 2.5q9 0 9 -16q0 -3 -2 -13q-91 -278 -103 -399q-56 11 -112.5 25t-113.5 31z" />
<glyph unicode="B" horiz-adv-x="734" d="M406 -8q63 -3 112.5 9t83.5 35q17 12 35.5 27t29 33t9 38.5t-24.5 43.5q-8 8 -25 19t-40.5 22t-52 20t-59.5 13q-12 2 -12 8t13 8q33 6 77.5 16t92 25t94.5 35.5t86 46.5q32 21 51.5 48t23.5 55.5t-10 56.5t-48 52q-53 37 -109 58t-116 32.5t-123.5 15t-131.5 4.5 q-4 0 -27 -1t-55.5 -4t-70.5 -9.5t-73.5 -17.5t-64 -26.5t-40.5 -38.5q-12 -21 -6 -39.5t21.5 -34t35.5 -29t37 -23.5q18 -12 19 -4t-14 16q-9 5 -23.5 15.5t-26.5 25t-18 30.5t2 31q13 26 38.5 43.5t56.5 27.5t64.5 14.5t63 6t52 0.5t31.5 -1q61 -1 123 -6t121.5 -17.5 t114.5 -34.5t102 -57q31 -23 39.5 -48t2.5 -48.5t-22 -44.5t-35 -36q-20 -16 -49.5 -31t-64 -28.5t-71 -24.5t-69 -19.5t-59 -14.5t-40.5 -8q8 12 22 34l31.5 49.5t35.5 57.5t33.5 58t26.5 52t13 38q3 15 -8 16.5t-24 -3t-22 -11.5t-3 -8q7 -1 9 -6.5t1.5 -12t-3 -14 t-4.5 -11.5q-10 -22 -25 -51t-34 -61t-40.5 -65.5t-43.5 -64.5q-13 -4 -30.5 -5.5t-26.5 -2.5q-3 0 -5.5 -3.5t-2 -8t4.5 -9t12 -7.5q7 -3 12 -4t12 -3q-17 -25 -39 -60.5t-44 -71.5t-39.5 -69t-23.5 -53q-8 -24 -2.5 -23t15.5 21q12 28 36.5 68.5t50 79t47 68t27.5 37.5 q16 -2 43 -7.5t55 -13.5t53.5 -17.5t38.5 -19.5q20 -15 26 -33t1.5 -35.5t-17.5 -32t-31 -22.5q-42 -19 -93.5 -28t-102.5 -7q-6 0 -12 -2.5t-7 -6t4.5 -7t21.5 -4.5z" />
<glyph unicode="C" horiz-adv-x="939" d="M341 -4q75 -2 154 15.5t163 52.5q157 66 248 159q7 7 7 11q0 5 -4 5q-5 0 -11 -7q-47 -43 -107 -78.5t-135 -66.5q-81 -32 -159.5 -49.5t-154.5 -19.5q-132 -3 -206 50q-63 46 -63 120q0 25 7 49q46 151 255 309q198 147 367 179q14 2 26.5 3t23.5 1q81 0 99 -40 q-43 -46 -86 -116q-57 -90 -57 -146q0 -4 16 -7q14 -1 17 0q57 32 98 82q36 40 49 74.5t13 73.5q0 40 -14 57q13 16 13 19q0 6 -5 7q-6 2 -7 -3l-13 -13q-33 30 -109 30q-27 0 -54 -3q-107 -13 -266 -99q-168 -91 -280 -205q-129 -131 -129 -240q0 -92 96 -149 q86 -53 208 -55zM734 447q13 52 48 119q18 35 37 61t38 46q10 -17 10 -45q0 -16 -3.5 -31t-9.5 -31q-34 -79 -109 -128q-5 -3 -9 0q-3 2 -2 9z" />
<glyph unicode="D" horiz-adv-x="864" d="M670 706q121 -40 190.5 -113t86 -158.5t-19 -173.5t-123.5 -159q-34 -27 -76.5 -48.5t-87.5 -37t-90.5 -23t-84 -6t-68 13t-42.5 35.5q-8 13 -8.5 32t6.5 33q10 25 33 66t53 90t64 101.5t67 101t61.5 88.5t47.5 64q5 7 1.5 10.5t-11.5 3.5q-7 0 -16 -3.5t-14 -9.5 q-17 -19 -40 -50.5t-49 -70.5t-54 -84.5t-55 -92t-52 -93t-45 -87.5q-2 -4 -1 -4q2 0 -2 0q-44 -3 -24 -53q2 -7 2.5 -8.5t-1.5 -6.5q-8 -23 -17 -48.5t-13 -45.5q-4 -21 3.5 -20.5t10.5 17.5q5 21 10.5 36t11.5 31q5 9 7.5 8.5t6.5 -8.5q17 -40 52 -56.5t79 -16.5 q45 0 95.5 13t97.5 32t87.5 41t65.5 40q68 50 110.5 109.5t58.5 122t6 125t-47.5 118t-102 101.5t-157.5 76q-39 12 -100 19t-130.5 5t-141 -14t-131.5 -38.5t-102.5 -68.5t-53.5 -102q-11 -63 21.5 -126t100.5 -129q20 -18 25.5 -12.5t-12.5 25.5q-19 21 -42.5 50.5 t-41.5 64t-25.5 73t6.5 77.5q18 52 59.5 86.5t97 55t119.5 28t126.5 6t118 -10t93.5 -21.5z" />
<glyph unicode="E" horiz-adv-x="805" d="M959 637q0 20 -22 27q-49 8 -110.5 15t-135.5 8q-13 0 -19 7t-9 15t-6 12.5t-9 0.5q-9 -7 -17 -14.5t-18 -18.5q-65 -4 -123.5 -9.5t-112.5 -17t-104.5 -31.5t-98.5 -51q-74 -50 -110.5 -107t-33.5 -135q0 -27 6 -55t15 -54.5t21 -50t26 -42.5q8 -11 14.5 -7.5t-0.5 15.5 q-29 44 -44.5 93t-12.5 101q5 71 44 124t92 89q43 26 93 44.5t101 30t100.5 17t91.5 5.5q-56 -68 -108 -139.5t-100 -143.5q-8 -2 -18.5 -3.5t-21.5 -3t-20 -3.5t-13 -6q-5 -5 -5 -11q0 -5 2.5 -10.5t6.5 -10t7 -6.5q5 -8 14 -9t17 -1q-12 -18 -25 -47t-24 -61t-17.5 -65.5 t-4.5 -60.5q3 -36 22 -59.5t43 -37t47.5 -19t36.5 -5.5q36 0 78.5 8t86 23t86 37t78.5 51q7 4 5.5 11t-12.5 1q-38 -22 -82 -39.5t-87 -30t-82.5 -20.5t-69.5 -10q-21 -2 -42.5 1t-39 13t-28.5 28t-11 45q1 36 10 71t22 67.5t28 61t28 51.5q19 5 48.5 9.5t65 8t73.5 6.5 t75 5t70 3.5t57 1.5q15 0 14.5 9t-14.5 11q-39 3 -85 4t-93 0.5t-94 -2.5t-87 -5q46 72 103.5 147t118.5 135q34 0 75.5 -2t82 -5t76 -7.5t57.5 -8.5q11 -4 22.5 -2.5t9.5 14.5z" />
<glyph unicode="F" horiz-adv-x="870" d="M982 734q11 -9 19.5 -18t14.5 -23q20 -42 -0.5 -62.5t-73.5 -20.5q-52 0 -132 20t-179 59q-50 19 -106.5 37.5t-115 30.5t-115 14.5t-106 -9t-88 -40.5t-60.5 -80q-24 -56 -27 -120t14 -126.5t54.5 -116.5t94.5 -90q28 -17 69 -16t80 17.5t68.5 46.5t35.5 71q0 5 -7 4 t-8 -4q-12 -40 -40.5 -67t-64 -39.5t-74 -9.5t-71.5 23q-43 28 -72 74.5t-44 101t-14.5 111.5t17 105.5t51 82t87.5 42.5q75 11 145.5 3t138 -26t131.5 -42t125 -44t119.5 -31.5t114.5 -4.5q36 4 54.5 23.5t20.5 44t-10.5 48.5t-37.5 38q-8 5 -13.5 4t5.5 -11zM712 615 q-14 -12 -38 -33t-50 -33q-4 -1 -6 -4t-2 -6q0 -2 3 -2.5t10 2.5q14 6 23 7t-1 -13q-23 -38 -43.5 -75t-36.5 -69q-6 -14 -11.5 -17t-16.5 -6q-23 -5 -34 -11t-13 -17q-1 -4 0.5 -4.5t5 1t8.5 3t11 1.5q9 0 17 -4t4 -15q-13 -35 -25 -79t-20.5 -87.5t-13 -80t-1.5 -55.5 q2 -21 14 -16t18 26q1 7 -0.5 9.5t-3.5 4t-4 3.5t-2 8q-2 27 3.5 60.5t15 69t22 71t24.5 66.5q3 11 8 15.5t16 4.5q19 1 51 1.5t65.5 1t62.5 2.5t42 6q14 2 15 6t-14 4q-13 0 -38 -0.5t-55 -0.5t-60.5 1t-54.5 5q-11 2 -12.5 4t2.5 12q14 34 34 67t39 60.5t35 47t22 27.5 q6 7 6.5 14.5t-2.5 12.5t-8 7t-11 -3z" />
<glyph unicode="G" horiz-adv-x="857" d="M244 -91q-38 -43 -38 -94q0 -53 39 -86q43 -36 118 -34q68 2 169 70q91 59 227 303q45 13 51 16q9 11 17 20.5t13 17.5q-11 37 -28 54q44 87 68.5 135.5t31.5 60.5q8 3 14 4.5t8 3.5q27 28 45 99q3 9 1 23q-2 13 -8 13q-2 0 -5 -3q-16 -14 -27.5 -24t-19.5 -17 q-24 -31 -64 -125q-4 -5 -5 -6q-35 -34 -101.5 -75.5t-163.5 -89.5q-116 -58 -207 -85.5t-159 -26.5q-85 1 -126.5 30.5t-41.5 86.5q0 35 15 82q57 171 316 318q253 144 487 144h22t22 -1q77 -8 121 -53q11 -12 21 -26.5t18 -33.5q3 -7 7 -8q5 -1 5 4t-3 10q-18 59 -62 99 q-47 43 -110 46q-243 15 -518 -138q-284 -159 -348 -356q-7 -20 -10 -40t-3 -38q0 -75 56 -114q26 -18 60 -27.5t76 -7.5q63 1 142 23.5t176 68.5q80 38 149.5 80t132.5 87q11 8 12 8t1 -2q0 -4 -5 -15q-32 -68 -57 -120.5t-42 -92.5q-103 -19 -169 -33.5t-96 -22.5 q-165 -47 -224 -112zM724 62q-113 -215 -199 -283q-75 -60 -164 -63q-71 -1 -111 25q-34 27 -34 66q0 47 41 85q57 50 181 95q42 15 91 28t106 27zM806 163q13 -13 11 -33q-1 -19 -13 -28q-11 -6 -19.5 -10.5t-16.5 -6.5q12 26 22 45t16 33z" />
<glyph unicode="H" horiz-adv-x="1092" d="M1330 756q1 6 -1.5 14.5t-7.5 14.5t-11 8.5t-11 -2.5q-10 -11 -24.5 -25t-30.5 -30t-31.5 -32.5t-27.5 -30.5q-4 -4 -1.5 -7.5t7.5 -2.5q8 3 11 -0.5t-2 -9.5q-20 -26 -47 -66t-55.5 -85t-55 -91t-44.5 -85q-24 -1 -60 -1t-74 0.5t-72.5 1t-56.5 -0.5q12 18 25 42t24 51 t20 54.5t12 50.5q8 56 -4 99t-43 70t-80 35.5t-114 -4.5q-50 -11 -108 -37.5t-115.5 -65.5t-109 -88t-87.5 -104q-5 -6 -4.5 -15.5t3.5 -17.5t8.5 -12.5t11.5 -0.5q13 8 26 21t21 24q4 6 6 11t2 18q76 88 168 151.5t188 87.5q58 14 100 8.5t67 -28t32.5 -60.5t-2.5 -90 q-5 -20 -15.5 -47.5t-24 -55.5t-28.5 -54t-29 -43q-24 -2 -47 -1.5t-40 -2.5q-10 -1 -12 -8t1 -15t10 -14.5t16 -6.5q11 0 24.5 2.5t21.5 3.5q-40 -59 -94.5 -122t-116 -120t-127.5 -102t-128 -67q-34 -11 -62.5 -16t-49 -0.5t-30 20t-6.5 45.5q2 19 9 38t16.5 36.5t20 32 t19.5 25.5q8 8 3 11.5t-13 -4.5q-12 -11 -25.5 -26.5t-26 -33.5t-21.5 -38t-12 -39q-3 -22 7 -42t32.5 -32.5t58 -13.5t84.5 14q73 24 143 69t135 103.5t124.5 127t112.5 140.5q27 4 65.5 6.5t78 4t75.5 2.5t58 1q-13 -27 -26 -63.5t-22.5 -74t-13.5 -73t1 -62.5q1 -6 6 -14 t11 -14t13 -9t13 -1q10 7 14 12q4 7 2 11t-9 0q-8 -5 -19 -0.5t-11 18.5q-1 35 8 75t22 77.5t27 68.5t23 49q14 0 24.5 1t19.5 0q7 -2 11.5 1t6 6.5t-0.5 7.5t-9 6q-8 2 -19 1t-22 -1q23 49 56 105t71.5 113t80.5 111.5t83 100.5z" />
<glyph unicode="I" horiz-adv-x="557" d="M757 739q2 4 -0.5 9t-7 8.5t-10.5 4t-10 -3.5q-6 -7 -22 -12q-68 -15 -134.5 -36t-125.5 -46.5t-109 -54t-84 -57.5q-40 -34 -62 -66t-20 -67q1 -19 7 -40t15 -32q4 -5 6.5 -2t0.5 8q-5 11 -10 29t-1 38q8 39 32.5 65.5t49.5 46.5q37 28 85 55.5t102.5 51t114.5 42.5 t120 30q-22 -53 -51 -114.5t-62.5 -126t-71.5 -127.5t-78 -119t-82 -101.5t-84 -74.5q-24 -16 -49.5 -25t-49 -11t-43 2t-32.5 15q-12 10 -22.5 24.5t-15.5 31.5q-2 9 -9 7t-4 -11q4 -17 11 -36t18 -29q17 -13 41.5 -18t52 -2.5t57.5 12.5t57 28q70 45 137 124.5 t128.5 175.5t115.5 201t99 203z" />
<glyph unicode="J" horiz-adv-x="664" d="M892 744q2 3 0 7t-6.5 7t-9.5 4t-9 -3q-6 -7 -15.5 -13.5t-23.5 -8.5q-17 -6 -51.5 -12.5t-79.5 -18t-96 -29.5t-101 -46.5t-95.5 -69t-78.5 -97.5q-19 -33 -28.5 -69.5t-10 -72.5t7 -68.5t21.5 -57.5q5 -9 9 -6.5t-1 10.5q-15 30 -16 63t6.5 65.5t21.5 62t29 53.5 q36 60 87 107.5t111.5 81.5t127.5 51.5t133 17.5q-21 -49 -50 -110t-61.5 -126t-67 -132t-66.5 -128q-54 -17 -117 -42.5t-129 -59t-132.5 -73.5t-125.5 -84.5t-109 -92.5t-83 -97q-30 -44 -35 -80.5t9.5 -60.5t46.5 -33t77 2q63 15 117 40.5t101.5 58.5t89 72t77.5 81 q71 84 130 173.5t114 183.5q8 3 17 6.5t13 4.5q8 2 8.5 7t-7.5 5q-7 0 -8.5 6.5t2.5 14.5q25 48 58 109.5t67.5 129t68.5 136t63 131.5zM571 186q-20 -32 -48.5 -77.5t-60 -93t-62.5 -91t-56 -71.5q-33 -38 -71.5 -76t-83.5 -71.5t-97 -60t-112 -42.5q-38 -10 -65 -5 t-38.5 23t-4.5 49t37 73q53 73 131.5 141t168.5 126t184 103t178 73z" />
<glyph unicode="K" horiz-adv-x="726" d="M371 190q224 346 233 435q2 14 -2.5 31t-16.5 37q-24 50 -66 53q-47 2 -113.5 -23.5t-151.5 -82.5q-179 -115 -216 -224q-1 -2 -1 -6t-1 -6q-2 -12 1 -21.5t9 -17.5t13 -14t12 -10q5 -3 16.5 -1.5t28.5 4.5q11 0 11 7q0 4 -13 7q-26 0 -39 7q-20 7 -20 24q0 8 4 20 q33 95 203 205q85 57 150.5 82.5t112.5 21.5q57 -3 57 -58q0 -18 -6 -33q-33 -97 -165 -332q-59 -105 -101.5 -174.5t-69.5 -107.5q-2 -2 -2 -6q0 -9 17 -9q11 0 14 6q20 33 97 120q40 46 65.5 70.5t37.5 29.5q161 -422 313 -491q41 -20 85 -20q85 0 169 78q8 9 8 14t-3 5 q-4 0 -15 -9q-68 -74 -156 -74q-41 0 -77 22q-52 31 -100 95.5t-95 163.5q-18 40 -41.5 100t-52.5 145q156 134 229 183q104 72 186 104t142 28q17 -3 17 5q0 7 -17 9q-111 8 -306 -110q-66 -42 -131.5 -89.5t-131.5 -103.5q-8 12 -17 8q-10 -6 -16 -41q-48 -42 -74 -68 q-12 -10 -16 -10q-5 0 -5 6q0 3 1.5 7.5t5.5 8.5z" />
<glyph unicode="L" horiz-adv-x="791" d="M23 156q4 -55 82 -126q79 -77 156 -75q38 2 73 34q37 31 52 77q248 -130 429.5 -194t296.5 -61q25 1 50.5 4t51.5 11q23 6 38 12.5t24 11.5q28 21 51 74q22 55 22 99q0 18 -6 18q-4 0 -7 -17q-2 -24 -8.5 -47.5t-16.5 -44t-22.5 -37.5t-25.5 -27q-62 -48 -153 -46 q-116 3 -284 68q-60 24 -126.5 55t-140.5 70q-40 22 -79.5 44t-79.5 43q36 91 60.5 150t38.5 89q97 212 174 298q71 80 134 74q49 -4 98 -52q25 -24 44 -51.5t31 -59.5q4 -11 10 -11t6 9q0 2 -1 4.5t-2 5.5q-27 84 -75.5 129t-108.5 43q-20 0 -43 -8t-50 -22 q-22 -13 -37 -24t-26 -22q-38 -40 -81 -113t-90 -181q-40 -87 -100 -248q-61 29 -94 44t-39 18q-95 39 -146 39q-5 0 -11 -0.5t-11 -1.5q-8 -2 -16 -7t-19 -13q-25 -20 -23 -35zM262 -32q-51 1 -111 48q-64 50 -92 116q-5 13 -5 22q0 27 38 22q92 -14 275 -102 q-31 -108 -105 -106z" />
<glyph unicode="M" horiz-adv-x="1178" d="M483 414q34 42 96 89q73 57 112 57q27 0 23 -33q-13 -69 -61.5 -185t-135.5 -281l-1.5 -4.5t-0.5 -3.5q0 -10 16 -10q21 0 31 13q132 174 305 344q197 194 286 217q15 4 28 4q30 0 30 -22q0 -7 -3 -16.5t-11 -20.5q-50 -78 -92 -154t-78 -150q-89 -188 -88 -276 q0 -25 16 -49q15 -24 32 -19q20 6 42.5 19t48.5 36q44 37 65 68q8 11 8 17q0 3 -3 3q-5 0 -14 -12q-23 -29 -70 -65q-25 -19 -44.5 -29.5t-33.5 -14.5q-31 -7 -31 32v7q0 3 1 7q18 119 119 303q20 36 57.5 98.5t93.5 151.5q5 5 5 22q0 28 -14 56q-16 31 -42 29 q-86 -5 -295 -206q-168 -165 -264 -292q-6 -10 -14 -10q-15 0 -7 17q124 256 139 374q2 19 -13 35.5t-35 16.5q-50 0 -177 -111q35 82 54 144.5t21 104.5q1 27 -31 52q-32 24 -62 23q-65 -5 -180 -74q-113 -67 -198 -152q-92 -94 -92 -156q0 -20 12 -37t23 -21q18 -6 34 0 q16 5 16 9t-14 2q-8 -2 -34 6q-25 9 -25 25q0 88 180 229q173 136 281 148q37 4 52.5 -8t15.5 -46q0 -36 -27 -120q-15 -45 -33 -88.5t-40 -85.5q-51 -49 -97.5 -100.5t-89.5 -108.5q-108 -141 -108 -200q0 -22 8 -22q9 0 31 13q11 5 18.5 10.5t10.5 9.5q111 120 248 391z M223 35q-8 -11 -15 -11q-13 0 -2 27q27 76 109 184q69 93 127 143q-22 -55 -98 -173q-37 -59 -67.5 -101.5t-53.5 -68.5z" />
<glyph unicode="N" horiz-adv-x="908" d="M549 733q-43 2 -97 -16t-120 -55q-59 -35 -111.5 -76.5t-99.5 -92.5q-94 -100 -97 -164q-3 -66 45 -75q25 -5 60 6q12 3 12 8q0 6 -12 4q-14 -3 -29.5 -2.5t-30.5 3.5q-26 5 -26 32q0 75 100 178q46 48 99 88t116 77q125 70 194 66q73 -6 73 -89q0 -14 -2.5 -29t-7.5 -31 q-43 -136 -286 -536q-2 -5 -3.5 -8.5t-1.5 -6.5q0 -11 13 -11q14 0 25 16q15 25 42.5 62t68.5 89q49 62 98 116t100 103q126 117 215 155q21 9 36 9q23 0 23 -21q0 -17 -11 -38l-145 -294q-16 -33 -39 -89t-48.5 -122.5t-50.5 -137t-45 -132t-32.5 -107t-13.5 -61.5 q0 -11 3 -23t9 -22t14 -17t19 -7q27 0 80 42q49 40 66 68q9 13 9 17q0 2 -2 4q-3 0 -15 -12q-104 -103 -146 -103q-16 0 -16 30q0 5 2 10.5t0 10.5q-8 16 2.5 61.5t32 107.5t51 133.5t59.5 139.5t57.5 125t45.5 90q35 67 71 131.5t72 131.5q2 4 2.5 10t0.5 12q0 14 -2 27.5 t-16 29.5q-11 13 -21 20.5t-24 4.5q-88 -14 -250 -173q-60 -58 -109.5 -112t-90.5 -106q-9 -16 -16 -16q-4 0 -4 4q0 7 7 18q80 134 125.5 226.5t59.5 146.5q5 23 5 46q0 53 -23 85q-25 39 -69 41z" />
<glyph unicode="O" horiz-adv-x="785" d="M53 319q-12 -45 -12 -87q0 -107 81 -173q71 -57 174 -62q111 -6 234 51q135 62 225 164q52 61 83.5 127t42.5 140q1 5 1.5 11.5t0.5 13.5q0 90 -58 172q-68 101 -186 119q-36 6 -75 6q-98 0 -189 -36q-95 -40 -155 -109q-52 -63 -52 -119q0 -16 4 -29q-94 -92 -119 -189z M675 712q-14 2 -28 3.5t-29 1.5q-113 0 -245 -64q-116 -55 -187 -126q-2 10 -2 20q0 50 48 101q54 57 144 93q94 39 192 39q14 0 29 -1t29 -3q60 -10 106.5 -33.5t78.5 -64.5q56 -73 56 -168q0 -120 -96 -238q-44 -55 -99.5 -99.5t-123.5 -80.5q-134 -70 -252 -64 q-112 5 -175 59.5t-63 147.5q0 20 3 40.5t8 42.5q12 40 44 96q17 27 32.5 46t29.5 32q11 -32 46 -60q19 -14 39 -21.5t42 -8.5q16 -3 16 7q0 7 -11 7q-41 0 -78 28q-17 14 -28 29.5t-13 32.5q39 56 165 121q145 77 265 77q30 0 56 -6q11 -3 11 7q0 6 -10 7z" />
<glyph unicode="P" horiz-adv-x="768" d="M530 267q-21 -11 -21 -19q0 -6 10 -11t26 -8.5t37 -5.5t44 -2q112 0 192 33q117 46 117 156q0 122 -128 233q-48 44 -101 79.5t-113 65.5q-79 38 -157.5 59.5t-159.5 25.5q-95 6 -166 -37q-62 -38 -70 -93q-3 -15 -3 -33q0 -52 15 -101q18 -58 47 -84q5 -8 10 -8l2 2 q0 4 -5 12q-45 67 -45 173q0 19 3 39q20 114 177 114q72 0 144.5 -17t149.5 -52q70 -32 133 -75.5t120 -96.5q105 -101 105 -213q0 -91 -79 -131q-34 -18 -77.5 -28t-96.5 -10q-57 0 -89 16q-17 5 -21 17zM164 -40q13 -5 30 -5q19 0 36.5 4t32.5 13q110 59 234 302 q75 146 131 305q3 7 1 26q-2 18 -5 18q1 0 -3 -4q-53 -159 -177 -374q-136 -236 -206 -262q-20 -5 -35.5 -6.5t-27.5 3.5q-29 12 -46 33q-9 9 -13 9q-5 0 -5 -6t6 -15q17 -26 47 -41z" />
<glyph unicode="Q" horiz-adv-x="1066" d="M408 557q2 7 3.5 13t3.5 11q30 72 138 127q116 60 254 57q73 -3 130.5 -25t100.5 -66q82 -80 82 -199q0 -67 -31 -135q-78 -172 -271 -269q-78 -38 -154.5 -58.5t-154.5 -22.5q-238 -6 -238 179q0 34 6 69q12 55 47.5 119t97.5 137q108 130 202 180q14 8 14 15q0 4 -7 4 t-16 -6q-63 -34 -118 -79.5t-108 -104.5q-112 -131 -136 -253q-2 -15 -3.5 -30.5t-1.5 -31.5q0 -101 45 -138q-19 10 -45 20t-58 20q-64 22 -82 21q-12 -1 -44 -24q-32 -27 -33 -37q-2 -11 3 -24t19 -30q25 -35 42 -35q16 0 -1 17q-14 12 -21 23.5t-9 19.5q-5 8 -5 19 q0 27 35 27q5 0 12.5 -1t15.5 -3q50 -13 118.5 -40t159.5 -71q130 -65 204 -101.5t97 -46.5q166 -71 277 -71q15 0 28.5 1t27.5 4q17 2 40 16t52 38q63 51 69 87q3 23 -7 60q-5 19 -9 31t-9 18q-5 9 -11 12q-3 1 -3 -3q-1 -3 -0.5 -6t1.5 -8q10 -34 10 -68q0 -41 -15 -70.5 t-44 -51.5q-47 -33 -117 -35q-44 -2 -112 18t-162 61q-37 17 -100 47.5t-153 76.5q33 -6 69 -6q88 0 176 29.5t178 89.5q91 60 146 124.5t78 135.5q22 69 22 137q0 135 -84 222q-87 93 -242 97q-133 6 -254 -60q-57 -29 -95 -65.5t-58 -78.5q-6 -16 -4 -29q2 -10 4 -10 q3 0 8 10z" />
<glyph unicode="R" horiz-adv-x="820" d="M455 217q0 -36 57 -148t86 -135q43 -33 75 -33q22 0 41 11q7 3 8 7q1 1 -3 3q-2 0 -4.5 -0.5t-6.5 -1.5q-13 -5 -26 -5q-30 0 -64 34q-32 32 -69 118q-34 80 -42 127q-2 13 5 13q40 2 82 10t88 22q82 25 134 55q134 75 134 194q0 105 -107 188q-73 57 -202 92 q-124 34 -263 34q-135 0 -241 -34q-108 -35 -108 -125q0 -49 30 -82q8 -8 11 -8t3 1l-3.5 8t-11.5 24q-14 31 -14 60q0 78 98 108q52 15 109 23t120 8q137 0 260 -36q126 -36 194 -97q87 -75 87 -175q0 -105 -105 -169q-60 -37 -149 -63q-45 -12 -81.5 -18t-67.5 -4 q-19 6 -23.5 10.5t-10.5 4.5q-20 0 -20 -21zM630 569q5 5 -10 21q-5 5 -10 5q-8 0 -8 -9q0 -1 2 -5q6 -13 -5 -24q-336 -474 -321 -522q3 -12 21 -12q19 0 18 10q-3 26 29.5 92t103.5 174q44 68 89.5 135t90.5 135z" />
<glyph unicode="S" horiz-adv-x="629" d="M129 202q-88 -37 -88 -97q0 -64 82 -92q55 -20 132 -20q52 0 100.5 10t94.5 29q107 45 107 145q0 49 -28 96q11 2 61 3q36 1 36 6q0 4 -11 4q-31 -1 -56 -1h-41q-60 80 -105.5 137.5t-74.5 93.5q-49 73 -49 121q0 60 60 102q119 89 304 89q34 0 64 -3t56 -11 q43 -12 69 -44q28 -36 28 -86q0 -17 -2.5 -31.5t-1.5 -18.5q1 -5 4 0q4 4 8 14q6 15 8.5 29.5t2.5 28.5q0 43 -25 81q-27 32 -63 45q-48 15 -121 15q-199 0 -347 -95q-70 -45 -70 -112q0 -61 58 -137q49 -66 89 -120.5t74 -99.5q-108 -9 -196.5 -29.5t-158.5 -51.5zM492 269 q34 -41 34 -91q0 -76 -89 -121q-45 -22 -93 -33.5t-101 -11.5q-31 0 -60 3t-58 11q-23 6 -41 22q-26 23 -26 44q0 45 85 88q76 40 195 64q28 6 66.5 12.5t87.5 12.5z" />
<glyph unicode="T" horiz-adv-x="714" d="M1019 678q11 -2 19 3.5t18 13.5q8 7 12.5 15.5t8.5 13.5q4 10 3.5 22t-4.5 22.5t-8.5 19.5t-7.5 14q-11 18 -16.5 15t2.5 -23q5 -11 6.5 -18t3.5 -17q2 -9 -3.5 -18t-22.5 -9q-34 0 -90 5t-125 13q23 32 41 61q8 12 1.5 23t-20.5 9q-15 -3 -36 -16.5t-33 -23.5 q-9 -5 -9 -10t11 -1q6 3 13 4.5t12 2.5q4 1 5.5 -3.5t-2.5 -8.5q-5 -5 -10.5 -13.5t-13.5 -19.5q-81 9 -169.5 18t-170 15t-149.5 7t-108 -7q-24 -5 -54.5 -19t-54.5 -35.5t-33.5 -50.5t9.5 -63q20 -37 44 -68t59 -66q6 -6 11.5 -9.5t7.5 -3t-1 6t-12 17.5q-23 28 -49.5 69 t-42.5 81q-14 33 -3 55t32.5 35.5t48.5 20t47 8.5q53 6 122 3t144.5 -10.5t153 -18.5t148.5 -22q-26 -46 -62 -112t-74 -141t-75 -154t-66 -150t-46.5 -128.5t-16.5 -90.5q0 -14 6.5 -18.5t13.5 -2.5t12 8.5t2 14.5q-5 11 -8.5 27t1.5 35q10 38 31.5 91t50 114.5t62.5 128 t69.5 132.5t70.5 127.5t66 112.5q76 -13 136 -22t92 -11z" />
<glyph unicode="U" horiz-adv-x="961" d="M829 1q10 37 36.5 98.5t71.5 150.5q42 81 73 135.5t53 83.5q4 11 6.5 21l4.5 18q2 10 -4 17.5t-15 7.5t-13 -6q-20 -21 -34 -38t-28 -28q-65 -57 -130.5 -112.5t-131.5 -109.5q-104 -87 -177.5 -138.5t-116.5 -70.5q-15 -8 -30 -8q-28 0 -28 28q0 8 3 17q7 33 28 79 t55 105q56 97 84 147t30 54q60 115 63 191q1 38 -36 80q-39 44 -76 45q-142 6 -286 -86q-133 -84 -185 -192q-17 -35 -17 -73q0 -26 7 -48q6 -19 23 -38t44 -40q7 -4 11 -4q6 0 6 4q0 6 -8 10q-62 41 -62 105q0 20 4 38t13 35q31 55 79 103t115 89q137 84 256 75 q43 -3 67 -33q22 -28 22 -57q0 -31 -16 -76.5t-50 -103.5q-32 -54 -63.5 -106t-63.5 -105q-74 -124 -85 -196q-2 -14 2 -27t12.5 -23t20 -15.5t23.5 -5.5q6 0 12 2q39 12 114 63t188 141q171 138 266 227q7 8 13 8q10 0 1 -26q-1 -2 -20 -44t-57 -127q-71 -155 -86 -213 q-7 -28 -7 -65q2 -17 11 -17q10 0 12 14q0 31 -4 40z" />
<glyph unicode="V" horiz-adv-x="676" d="M340 16q53 63 104.5 125.5t104.5 124.5q75 88 141 154.5t123 112.5q153 127 257 127q9 0 18 -1t19 -3q12 -3 12 2q0 2 -12 9q-24 7 -51 7q-143 0 -371 -228q-69 -70 -158 -174.5t-198 -245.5q-12 -16 -21 -16t-12 18q-2 14 0 28q12 73 117 325q48 118 73.5 194.5 t26.5 111.5q1 42 -31 71q-30 28 -71 25q-117 -15 -238 -135q-123 -122 -137 -241q-2 -19 12 -44q8 -13 14.5 -19.5t12.5 -8.5q9 -8 19 -8q15 3 15 12q0 6 -10 7q-8 2 -14 2.5t-9 2.5q-22 13 -19 53q9 95 120 212q120 126 245 144q5 1 10 1h9q44 0 44 -44v-14q-1 -5 -1 -7v-4 q-3 -68 -108 -309q-54 -124 -82 -205.5t-31 -123.5q0 -9 3 -19t8.5 -18.5t13.5 -14t18 -5.5q18 0 34 19z" />
<glyph unicode="W" horiz-adv-x="1094" d="M385 1q18 23 32.5 44t26.5 35q112 132 197 230t144 166q7 7 13 7t6 -9t-4 -16q-97 -185 -97 -342v-20q0 -8 1 -17q3 -40 30 -65t65 -25q5 0 10.5 0.5t11.5 1.5q68 15 181 120q57 54 104.5 111t86.5 121q90 144 90 243q0 76 -31 111q-9 11 -15 11q-3 0 -3 -4q0 -6 7 -13 q21 -34 20 -105q-2 -52 -25 -113t-69 -133q-77 -122 -186 -223q-109 -102 -164 -109q-4 -1 -8 -1h-8q-33 0 -54 20.5t-20 52.5q1 99 33 197q14 43 37.5 95.5t55.5 113.5q2 4 2 10q0 14 -9 30t-20 20q-8 2 -16 -15q-15 -23 -15 -25q-104 -119 -188.5 -215t-149.5 -171 q-9 -9 -15 -10q-6 -2 -6 6q0 3 5 15q44 72 81.5 144t69.5 147q81 187 78 276q-2 46 -44 76q-44 33 -95 27q-140 -20 -315 -143q-176 -125 -198 -221q-2 -5 -2 -15q0 -21 9 -42.5t21 -27.5q25 -13 60 0q12 2 12 6q0 2 -11 2q-43 0 -59 13q-21 19 -6 64q37 106 226 225 q93 57 166.5 86.5t130.5 29.5q78 0 86 -80q14 -124 -305 -676q-2 -6 -2 -10q0 -18 26 -18q10 0 15 7z" />
<glyph unicode="X" horiz-adv-x="770" d="M0 -118q11 38 29 75t46 75q52 72 174 169q55 45 113 84.5t121 76.5q0 -1 -0.5 -12t-0.5 -31v-54q0 -180 48 -225q12 -12 27 -22t30.5 -17.5t29.5 -11.5t23 -2q62 9 165 80q11 5 5 11q-4 6 -14 0q-45 -30 -84.5 -45.5t-74.5 -18.5q-59 -3 -90 41t-31 182q0 58 6 145 q49 28 103.5 60.5t114.5 72.5q164 105 208 157q4 4 4 13q0 38 -15 38q-2 0 -4 -2q-17 -17 -31 -28.5t-23 -16.5q4 -21 -10 -34q-69 -56 -154.5 -112.5t-188.5 -115.5q8 86 10.5 150t0.5 108q0 11 -21 29q-20 18 -35 18q-28 2 -59.5 -12.5t-69.5 -42.5q-35 -28 -62 -57.5 t-42 -60.5q-1 -1 -3 -8q-2 -6 0 -10q2 -2 5 0q2 1 3.5 3.5t3.5 5.5q91 128 192 152q41 9 46 -30q1 -9 1.5 -18.5t0.5 -22.5q0 2 -3.5 -54.5t-10.5 -172.5q-59 -35 -117.5 -74t-119.5 -87q-69 -54 -117.5 -100t-74.5 -84q-58 -80 -67 -165q-2 -20 2 -20q6 0 11 21z" />
<glyph unicode="Y" horiz-adv-x="927" d="M789 50q-328 -51 -458 -151q-49 -39 -49 -88q0 -40 34 -67q36 -30 97 -31q73 -2 169 53q61 34 122 110q21 26 47.5 63.5t58.5 90.5q17 5 29.5 9t20.5 5q6 1 13 7t16 17q19 25 19 34q0 3 -3 10.5t-7.5 15.5t-10.5 16.5t-11 13.5q35 78 66 145t58 127l19 19t16 13 q10 10 1 31q-2 2 -4 2q-19 0 -29 -15q-11 -17 -20.5 -31t-17.5 -25l-2 -5q-49 -51 -118.5 -107t-160.5 -119q-197 -136 -317 -169q-24 -6 -33 -6q-14 0 -14 14q0 6 2.5 15.5t8.5 21.5q18 44 101 164q51 72 84 122.5t50 79.5q35 57 51.5 102.5t16.5 79.5q0 51 -50 99 q-49 47 -108 46q-121 -3 -263 -98q-135 -90 -173 -190q-11 -26 -11 -63q0 -35 11 -58q18 -43 85 -55q19 -3 19 3t-14 7q-9 1 -19.5 5.5t-21.5 12.5q-26 17 -34 35t-8 41q0 28 16 66q46 100 191 190q71 43 130.5 63.5t108.5 15.5q110 -8 110 -97q0 -73 -67 -188 q-13 -21 -46 -72t-87 -131q-82 -121 -99 -176q-4 -9 -4 -20q0 -13 4.5 -24.5t12 -19.5t16 -12t17.5 -1q62 17 141 58t176 107q149 102 276 214q5 5 6 1q1 -1 -2 -11q-19 -41 -38.5 -81.5t-39.5 -81.5q-61 -127 -80 -152zM776 24q-32 -50 -53.5 -82t-32.5 -48 q-56 -72 -117 -113q-79 -52 -162 -53q-114 -2 -114 73q0 45 46 81q72 57 231 99q54 15 104 25.5t98 17.5zM870 147q19 -26 18 -47q-1 -20 -22 -32q-14 -4 -24 -7t-18 -4q15 29 26.5 51t19.5 39z" />
<glyph unicode="Z" horiz-adv-x="954" d="M374 463q-32 53 -32 134q0 9 0.5 17t1.5 16q9 56 64 71q19 4 43 6.5t54 2.5q93 0 225 -24q97 -15 136 -27q-13 -8 -40 -38t-70 -82q-36 -43 -60.5 -73.5t-37.5 -50.5q-15 -3 -25.5 -4.5t-18.5 -2.5q-6 -3 -6 -12q0 -19 15 -32q-46 -65 -104 -134q-35 -42 -61.5 -68 t-43.5 -37q-68 41 -137 84q-115 68 -146 68q-29 0 -38 -9t-9 -29q-20 -9 -37 -50q-10 -21 -14 -42t-2 -39q4 -55 39 -82t99 -27q24 0 39 3q27 6 53 14.5t52 20.5q28 15 84 51q123 -72 205.5 -119t127.5 -71q246 -131 383 -161q34 -8 64 -9t53 10q5 3 14 6t21 10.5t26.5 22 t29.5 40.5q14 24 16.5 59.5t-1.5 80.5q-1 13 -7 13q-7 0 -7 -15q-1 -206 -156 -206q-23 0 -50 6q-69 13 -169 58t-233 121q-81 45 -152 89.5t-136 87.5q45 38 107.5 106.5t140.5 171.5q30 4 46.5 5.5t18.5 1.5q23 0 23 9q0 4 -13 4h-10q-6 0 -15 1h-35q48 72 99.5 132 t106.5 108q33 -6 39 -3q8 6 8 21q0 37 -18 37q-5 0 -12 -3t-14 -6.5t-12 -6.5t-6 -3q-244 49 -358 49q-82 0 -129 -19q-19 -6 -33 -29q-8 -10 -12.5 -15t-6.5 -7q-16 -6 -20 -19.5t-4 -31.5q0 -37 15 -88q16 -47 31 -68q11 -14 14 -14t3 4q0 2 -2 6t-4 9zM205 16 q-8 -1 -15.5 -1.5t-16.5 -0.5q-24 0 -44.5 5.5t-36.5 14.5q-41 25 -40 73q1 97 61 125q3 1 5.5 1.5t5.5 0.5q20 0 53.5 -14t82.5 -43q73 -42 121 -78q-43 -34 -87 -54t-89 -29z" />
<glyph unicode="[" horiz-adv-x="587" d="M89 310q-13 -33 -29.5 -75.5t-30.5 -86t-23 -82t-7 -63.5q1 -17 4 -36t9.5 -35.5t17 -28t26.5 -11.5q34 -2 77.5 1t84.5 8.5t74.5 13.5t47.5 17q12 8 16.5 15t3.5 11t-7 4.5t-15 -4.5q-15 -8 -51.5 -14t-80 -8.5t-85.5 -0.5t-69 11q-12 4 -18 6.5t-8.5 7.5t-2 14t2.5 25 q17 77 49.5 169t74.5 185.5t90 182t97 158.5q22 9 52.5 16.5t62.5 11t61.5 2t49.5 -8.5q1 4 5 9.5t7 11t2.5 10t-7.5 6.5q-11 6 -34.5 8t-51.5 1.5t-56.5 -3t-47.5 -6.5q-4 17 -19.5 19t-25.5 -1q-10 -5 -24.5 -28t-30.5 -49z" />
<glyph unicode="\" horiz-adv-x="455" d="M612 -78q4 -21 11 -21q2 6 2 24q-9 67 -263 318q-118 115 -215 201t-175 143q-9 8 -19 8q-9 0 -9 -8q0 -9 12 -16q81 -60 177.5 -144t209.5 -193q249 -239 269 -312z" />
<glyph unicode="]" horiz-adv-x="474" d="M374 354q13 33 29.5 75.5t30.5 86t23 82t7 63.5q-1 16 -4 35.5t-9.5 36t-17 28t-26.5 11.5q-34 2 -77.5 -0.5t-84.5 -8t-74.5 -13.5t-47.5 -17q-12 -8 -16.5 -15t-3.5 -11.5t7 -5t15 4.5q15 8 51.5 14.5t80 9t85.5 0t69 -11.5q12 -4 18 -6.5t8.5 -7.5t1.5 -14t-2 -25 q-17 -77 -49.5 -169t-74 -185.5t-90 -182t-96.5 -158.5q-23 -9 -53.5 -16.5t-62.5 -10.5t-61.5 -2t-49.5 8q-1 -5 -5 -10t-7 -10.5t-3 -9.5t8 -7q10 -6 34 -8t52 -1.5t56.5 3t48.5 6.5q1 -8 6.5 -12.5t12.5 -6t13 -1.5q7 0 12 2q10 5 24.5 28t30.5 49z" />
<glyph unicode="^" horiz-adv-x="376" d="M503 591q8 1 43 -19q12 -8 25 -16t25 -16q4 -5 9 -3t5 5q0 4 -4 8q-94 78 -100 80q-2 1 -59 -31q-35 -19 -56.5 -30t-29.5 -16l-4 -4t-2 -5q0 -9 12 -2q41 17 74.5 29.5t61.5 19.5z" />
<glyph unicode="_" horiz-adv-x="515" d="M45 -41h427q25 0 25 8q0 5 -18 5h-425q-29 0 -29 -7q0 -6 20 -6z" />
<glyph unicode="`" horiz-adv-x="266" d="M521 531q-39 38 -69.5 66.5t-53.5 49.5q-4 4 -10 4q-22 0 -22 -22q0 -6 6 -10q45 -30 80.5 -54.5t62.5 -42.5q4 -3 9 0q2 5 -3 9z" />
<glyph unicode="a" horiz-adv-x="421" d="M55 13q63 37 151 111q44 38 77.5 70t57.5 61q2 2 3 2q8 0 1 -11q-17 -26 -33.5 -57t-33.5 -67q-14 -30 -28 -69t-26 -78.5t-19.5 -74.5t-8.5 -56q-1 -26 6.5 -46.5t26.5 -31.5q16 -11 36 -18.5t44 -7.5q16 0 30 2.5t28 7.5q28 10 61.5 32t75.5 56q45 38 77.5 76t55.5 72 q4 7 4 11q0 2 -1 3q-3 0 -12 -10q-24 -31 -56.5 -66t-73.5 -68q-85 -68 -138 -86q-35 -12 -71 -12t-57 16.5t-21 50.5v10q0 4 1 9q4 29 16 71t28.5 88.5t36.5 92t41 80.5q27 45 55.5 88.5t57.5 88.5q1 2 -2 7t-7 5t-6 -2q-8 -10 -26 -13q-2 -1 -19 1q-12 4 -24 6.5t-24 2.5 q-11 0 -21.5 -2.5t-19.5 -5.5q-39 -16 -84 -47.5t-96 -82.5q-111 -111 -111 -182q0 -35 25 -35q10 0 23 8zM71 98q14 32 37.5 67t57.5 73q72 79 119 91q12 3 23 3q20 0 33 -9.5t13 -20.5q0 -4 -3 -7q-71 -85 -133 -144.5t-118 -94.5q-8 -5 -15 -5q-18 0 -18 24q0 12 4 23z " />
<glyph unicode="b" horiz-adv-x="458" d="M142 326l0.5 0.5t0.5 1.5q-1 -3 -3 -7v2l-1 -1q0 -1 -1 -1.5t-1 -1.5v-3q-1 -5 -3 -5q-37 -86 -65 -152t-48 -112q-10 -14 -14 -24q0 -8 5.5 -15t13.5 -9q4 -2 6 -2q103 -2 226 72q122 73 180 170q4 8 7 15.5t5 14.5q1 37 -33 37q-12 0 -20 -4q-29 -12 -73.5 -37.5 t-104.5 -65.5q-49 -32 -82 -54.5t-50 -38.5q4 12 8.5 26.5t12.5 31.5q20 57 37 97t31 66q152 29 299 70t291 96q415 157 510 338q19 38 22 74q12 119 -101 214q-111 95 -256 87q-423 -27 -795 -866v-7q4 8 2.5 6t-3.5 -8q-1 -1 -3 -5zM1255 858q-83 -168 -422 -317 q-284 -124 -651 -199q112 269 267 484q249 351 492 362q142 5 243 -79q98 -80 89 -187q-3 -17 -7 -32.5t-11 -31.5zM102 102q23 17 55 41t76 53q108 72 130 72q24 0 22 -31l-4 -16q-26 -62 -108 -122q-39 -28 -76.5 -46.5t-75.5 -26.5q-36 -7 -46 -4q-8 1 -5 15l-1 4 q1 1 1 2t1 2q0 1 -1 1v1q8 35 32 55z" />
<glyph unicode="c" horiz-adv-x="362" d="M331 344q16 19 16 37t-10.5 30t-28 17t-36.5 -1q-24 -8 -52 -25.5t-56 -43t-54.5 -57t-47.5 -66.5t-34.5 -72t-15.5 -73q-1 -20 9 -38t25.5 -30.5t33 -19t32.5 -3.5q19 3 38 10.5t37 16.5t33 18.5t26 17.5q8 5 4.5 8.5t-11.5 -1.5q-28 -16 -65.5 -30t-70.5 -18 q-13 -1 -25.5 1.5t-22 10t-15 21.5t-4.5 36q4 48 28 90t47 73l12 16q34 38 71.5 72.5t74.5 55.5q15 8 26.5 8.5t17.5 -6t5 -18.5t-11 -28q-12 -17 -38 -39t-49 -39q40 9 67 28.5t44 40.5zM220 277q0 -1 -1 -1v-1q1 1 1 2z" />
<glyph unicode="d" horiz-adv-x="433" d="M404 340q-17 5 -30.5 7.5t-24.5 2.5t-21.5 -2.5t-19.5 -5.5q-75 -30 -181 -130q-118 -112 -118 -179q0 -34 37 -34q4 0 10 2q64 26 164 117q44 38 78 74.5t60 68.5q3 4 6 4q11 0 5 -17q-58 -153 -58 -211q0 -14 3.5 -26t8.5 -20q11 -12 22 -6q4 1 8 7q3 6 -2 8 q-5 1 -9 1.5t-8 1.5q-6 7 -6 11q-1 105 93 288q22 43 44 82.5t44 77.5q17 -1 34 -1h36q385 0 787 188q108 50 165 124q51 66 51 140q0 97 -82 167q-87 72 -214 72q-77 0 -155 -28q-234 -81 -463 -374q-23 -29 -48 -64.5t-54 -78.5h-2q-99 -21 -147 -74q-7 -7 -7 -17 q0 -16 11 -30.5t25 -16.5q7 -2 14.5 -3t15.5 -2q-17 -29 -35 -60t-37 -64zM1137 1112q69 29 143 29q112 0 196 -60q84 -57 84 -144q0 -134 -208 -254q-358 -208 -775 -208h-31t-28 1q294 498 619 636zM73 87q26 64 103 141q39 38 70.5 61t57.5 29q13 3 26 3q36 0 36 -23 q0 -11 -12 -26q-61 -71 -124 -126t-129 -98q-8 -5 -16 -5q-17 0 -17 22q0 12 5 22zM448 484q-22 3 -22 20q0 11 7 18q21 25 52 44t75 31q-17 -27 -35.5 -56.5t-38.5 -61.5q-11 1 -20.5 2t-17.5 3z" />
<glyph unicode="e" horiz-adv-x="338" d="M465 308q5 7 1.5 9t-8.5 -5q-12 -11 -33.5 -22t-42.5 -13q-16 -2 -38.5 -3t-48.5 -1.5t-55 -0.5h-55q50 8 89 27t54 47q9 15 7.5 33t-10 32.5t-23.5 22t-34 1.5q-35 -14 -78.5 -48.5t-83 -82t-67 -102.5t-30.5 -110q-1 -20 9 -37.5t25 -30.5t33 -19.5t33 -3.5 q18 3 37.5 10.5t37.5 16.5t33 18.5t26 17.5q8 5 4 8.5t-12 -1.5q-27 -15 -64.5 -29t-70.5 -19q-13 -1 -25.5 1.5t-22 10t-15 21.5t-4.5 36q1 24 9 46.5t19 43.5t23.5 39.5t23.5 33.5h70t80 1t73.5 2t50.5 4q28 4 50.5 19.5t32.5 26.5zM304 355q-12 -18 -32.5 -33 t-45.5 -26.5t-53 -17.5t-54 -6q34 37 72 71.5t75 55.5q15 8 26.5 8.5t17.5 -6t5 -18.5t-11 -28z" />
<glyph unicode="f" horiz-adv-x="255" d="M-550 -186q-28 -10 -56.5 -28.5t-53.5 -43.5t-43.5 -55t-25.5 -63q-11 -48 3 -93.5t50.5 -75t93.5 -36t132 23.5q63 25 128.5 85.5t128.5 140t121.5 170.5t109 176.5t90.5 158t65 115.5q2 3 5 5t11 3q43 2 82.5 4.5t78.5 3.5q11 0 11.5 5t-7.5 5h-164q17 28 44.5 67.5 t61.5 77.5t72.5 67t79.5 35q23 3 45 -6t39 -26q3 -2 6.5 0.5t6.5 7t5 9t2 6.5q0 6 -8.5 15.5t-20.5 11.5q-26 4 -54 -0.5t-55.5 -15t-53 -25t-46.5 -30.5q-22 -17 -44 -40t-43 -49t-40.5 -53t-36.5 -52q-12 -2 -23 -1t-22 1q-6 0 -16 0.5t-12 -7.5q-4 -9 5.5 -13.5 t17.5 -9.5q7 -5 13 -12.5t-2 -21.5q-27 -50 -65 -121.5t-84.5 -151.5t-99.5 -162.5t-109.5 -154.5t-114.5 -126.5t-115 -79.5q-58 -25 -108 -22.5t-84.5 26.5t-49 66t-0.5 97q17 66 58 113.5t92 70.5q14 6 13.5 9.5t-14.5 -1.5z" />
<glyph unicode="g" horiz-adv-x="729" d="M394 287q-102 1 -219 -72q-117 -74 -164 -170q-9 -17 -9 -31q0 -36 36 -36q11 0 19 3q29 13 71 38.5t99 65.5q45 32 75.5 54.5t47.5 38.5q-4 -12 -7.5 -26.5t-8.5 -31.5q-31 -111 -54 -163q-300 -57 -574 -166q-403 -159 -479 -338q-16 -38 -16 -75q0 -118 121 -213 q120 -95 264 -87q420 27 715 868q58 13 131.5 18.5t164.5 5.5q23 0 41.5 -0.5t32.5 -1.5q49 -4 49 -40q0 -44 -59 -99q-10 -7 -10 -13q0 -1 2 -1q6 0 15 8q52 41 65 66q5 10 5 22q0 13 -6 25t-15.5 22.5t-21 17.5t-22.5 9q-14 2 -32.5 3.5t-43.5 1.5q-136 0 -289 -27 q31 90 53.5 158t38.5 116q9 12 11 24q0 8 -6.5 15t-14.5 9q-2 2 -6 2zM-749 -574q66 165 393 317q271 123 632 199q-44 -135 -99.5 -255t-122.5 -229q-218 -353 -460 -362q-139 -6 -250 79q-105 81 -105 187q0 32 12 64zM333 182q-20 -18 -50.5 -41.5t-71.5 -52.5 q-102 -73 -123 -73q-24 0 -24 32q0 5 0.5 8t1.5 8q21 62 97 122q72 55 145 72q35 9 46 5q7 -1 7 -19q-1 -1 -1 -4v-1q1 0 1 -1q-3 -36 -28 -55z" />
<glyph unicode="h" horiz-adv-x="521" d="M266 430q16 -1 33 -1.5t34 -0.5q390 0 792 189q110 51 165 124q51 66 51 140q0 97 -82 167q-86 72 -214 72q-77 0 -155 -28q-146 -51 -286.5 -178.5t-280.5 -338.5q-98 -21 -147 -73q-3 -4 -5 -8t-2 -10q0 -14 11 -29t25 -18q9 -2 16.5 -3t12.5 -2 q-72 -124 -127.5 -226.5t-95.5 -187.5q-1 -3 -1 -8q0 -16 8 -16q3 0 5 5q9 12 11 8q45 54 129 135q100 96 156 126q11 7 20 7q15 0 15 -14q0 -8 -4 -13q-88 -116 -107 -195q-5 -23 18 -41q19 -18 37 -18q58 0 188 106l7 7l-1 1q0 1 -1 2q-1 -1 -3.5 -2t-5.5 -3 q-111 -84 -160 -84q-27 0 -27 26q0 36 49 125q21 37 40 66.5t36 50.5q1 1 1 5q0 8 -9 15.5t-15 6.5q-35 -9 -39 -14q-33 -3 -125 -76q-38 -32 -74 -64t-68 -64q-14 -14 -22 -23t-13 -13q56 102 108 193t102 175zM275 447q146 248 300 405.5t322 227.5q69 29 142 29 q112 0 196 -60q84 -57 84 -144q0 -133 -208 -254q-98 -57 -203 -98t-218 -68q-89 -20 -173.5 -30.5t-167.5 -10.5q-20 0 -38.5 1t-35.5 2zM244 449q-3 0 -11.5 1t-22.5 3q-22 3 -22 20q0 11 8 19q20 23 49.5 41.5t71.5 30.5q-18 -28 -36.5 -57t-36.5 -58z" />
<glyph unicode="i" horiz-adv-x="230" d="M302 130q6 5 9 11t2.5 9t-4.5 2t-13 -10q-14 -13 -40 -32t-56 -38t-58.5 -34t-47.5 -19q-10 -2 -20.5 -2.5t-17.5 5.5t-6.5 19.5t12.5 38.5t15.5 33t4.5 11t2.5 6.5t9.5 19.5t26.5 50.5t52.5 98.5q9 18 5 29t-13 14t-19 -1.5t-12 -16.5q-1 -4 -9 -21.5t-20 -42t-26 -54 t-26 -58t-20 -54t-8 -41.5q0 -18 9.5 -30.5t22 -20t25 -9.5t18.5 0q22 10 52 28t59.5 38.5t54 39.5t36.5 31zM239 439q3 9 -6.5 17.5t-20.5 6.5q-14 -3 -37 -27q-23 -23 -23 -37q0 -13 22 -17q15 -3 37 18q25 22 28 39z" />
<glyph unicode="j" horiz-adv-x="230" d="M16 -40q-46 -9 -111 -24t-141 -36.5t-159 -48t-164.5 -59t-158 -69.5t-140.5 -79.5t-111 -89.5t-69 -99q-19 -45 -14.5 -91t27 -89t60.5 -80t85 -64t101.5 -41t109.5 -10q95 6 178 51.5t154 117t129.5 161t106.5 184t85 186.5t63 168q41 9 94 14.5t106 8.5t98 3 q46 0 72 -3q26 -2 40 -16.5t6 -41.5q-6 -19 -21 -41t-35 -40q-11 -11 -9 -14.5t16 7.5q20 17 36 30t29 36q8 15 4.5 31.5t-13.5 30t-24 23t-27 12.5q-25 5 -68 5q-42 0 -92.5 -3t-104.5 -9.5t-100 -14.5q12 32 25 72.5t26 79.5t23.5 71.5t17.5 50.5q10 13 11 24q1 9 -6 13.5 t-18 0.5q-9 -2 -22 -13.5t-15 -22.5q2 -2 -1 -19.5t-9.5 -43t-15.5 -57t-18.5 -62t-19 -57.5t-16.5 -43zM-1014 -572q24 60 80 116t135 106t176.5 94.5t203.5 81.5t216.5 66.5t214.5 51.5q-15 -45 -45 -123.5t-74.5 -171.5t-102.5 -189t-129 -175.5t-154.5 -131 t-177.5 -55.5q-55 -2 -106.5 10.5t-94.5 36.5t-76.5 56.5t-53 70t-24 77.5t11.5 79zM213 427q4 9 -6 17.5t-20 6.5q-14 -3 -37 -27q-23 -23 -23 -37q0 -13 21 -17q13 -4 38 18q24 22 27 39z" />
<glyph unicode="k" horiz-adv-x="550" d="M312 431q390 0 792 189q111 52 165 125q51 66 51 139q0 96 -81 168q-88 71 -215 71q-76 0 -155 -27q-146 -51 -286.5 -179t-280.5 -338q-48 -11 -85 -29.5t-62 -44.5q-7 -7 -7 -18q0 -14 11 -29t25 -18q9 -2 16.5 -2.5t12.5 -1.5h4q-21 -34 -45 -75t-52 -89 q-14 3 -22.5 -11t-0.5 -40q-15 -29 -34.5 -76.5t-46.5 -115.5q-1 -3 -1 -8q5 -16 10 -16q4 0 6 5q25 60 46 106.5t41 78.5q239 -296 420 -345q7 -2 19 -5.5t33 -6.5q46 -5 49 -3q21 14 33.5 32t20.5 35q-1 2 -1 5q0 2 -1 3q-4 2 -7 -5q-24 -54 -92 -54q-14 0 -31 5 q-98 29 -223 145q-59 54 -101.5 106.5t-71.5 103.5q72 0 150 35q82 37 109 88q13 30 13 49q-3 23 -32 23q-69 0 -258 -137q32 54 54.5 92.5t35.5 64.5q4 2 8.5 3t8.5 3q14 -1 29 -1h29zM254 450q146 248 300 405.5t322 227.5q69 29 143 29q110 0 195 -59q84 -59 84 -144 q0 -134 -208 -255q-194 -110 -421 -166q-175 -40 -341 -40q-20 0 -38.5 0.5t-35.5 1.5zM328 268q-13 -10 -32 -18t-43 -16q-23 -8 -42.5 -11t-35.5 -3q-10 0 -13 1q-6 10 -9 17.5l-5 12.5q23 24 86 67q77 50 107 54q34 5 34 -24q3 -42 -47 -80zM223 452q-3 0 -11.5 1 t-22.5 4q-22 3 -22 19q0 12 8 19q40 48 121 73q-18 -29 -36 -57.5t-37 -58.5z" />
<glyph unicode="l" horiz-adv-x="343" d="M26 114q1 -47 20 -70.5t48 -27.5t65 11t71 46q11 10 23.5 23t20.5 23q8 11 4.5 12.5t-11.5 -6.5q-11 -12 -21.5 -22.5t-23.5 -20.5q-24 -18 -51.5 -29.5t-51 -8.5t-39 24t-13.5 68q1 41 12.5 92.5t28.5 98.5q152 29 298.5 70t289.5 96q416 157 511 338q17 35 22 74 q10 120 -102 214q-110 95 -256 87q-424 -27 -794 -866v-3q-25 -58 -39 -114.5t-12 -108.5zM1186 858q-83 -168 -423 -317q-143 -63 -305 -112t-345 -87q3 5 5 10l4 10h-1q55 128 119 243.5t140 220.5q249 351 491 362q143 5 243 -79q100 -81 89 -187q-2 -17 -6 -32.5 t-11 -31.5z" />
<glyph unicode="m" horiz-adv-x="620" d="M12 1q2 2 8 5t17 7q21 8 24 13q17 25 31 43.5t25 30.5q42 48 100 96q26 23 44 35.5t28 17.5q9 3 13 3q15 0 15 -18q0 -10 -4 -19q-12 -38 -33.5 -78.5t-51.5 -84.5q-4 -5 2.5 -12t12.5 -4q5 3 13 6.5t21 9.5q11 4 16.5 8t7.5 6q42 60 192 180q12 9 20 9q14 0 14 -17 q0 -13 -7 -27q-35 -92 -117 -193q-4 -14 -1 -24l-24 -24q-3 -3 -3 -7q0 -11 12 -11q4 0 9 3q102 78 255 132q145 52 292 67q9 1 18 1.5t17 0.5q67 0 105 -26q36 -24 36 -59q0 -11 -7 -28q-9 -21 -16.5 -26t-7.5 -9q0 -3 4 -3q5 0 13 5q18 7 25 27q4 12 4 26q0 47 -55 79 q-27 16 -62 21.5t-78 3.5q-53 -3 -117.5 -17t-142.5 -38q-111 -35 -185 -69q-6 -2 -10 -4t-8 -2q-7 0 -7 8q0 10 10 24q35 57 61.5 106.5t46.5 93.5q6 7 10.5 12.5t8.5 9.5q4 21 -13 21q-5 0 -11 -3q-51 -24 -111.5 -67.5t-130.5 -106.5q-4 -4 -10 -4q-9 0 -9 11q0 8 6 17 q22 43 33.5 69t11.5 36q0 12 -10 15q-28 9 -91 -30q-86 -53 -146 -115q-6 -6 -11 -6q-11 0 2 23q30 54 69 99q34 41 41 45q8 6 4 9q-5 3 -16 -1.5t-17 -9.5q-16 -16 -39 -45t-52 -71t-51 -75.5t-36 -60.5q-10 -16 -11 -23q-1 -5 0 -13q1 -5 4 -4z" />
<glyph unicode="n" horiz-adv-x="417" d="M19 24q41 9 51 22q59 69 115.5 123t113.5 94q8 5 16 5q18 0 18 -16q0 -6 -3 -10q-29 -40 -54.5 -82.5t-48.5 -88.5q-57 -109 -63 -181q-5 -64 23 -94q26 -26 66 -22q112 12 208 107q35 35 58 67t32 61q6 18 6 29q0 23 -17 23q-7 0 -15.5 -4t-8.5 -10q0 -3 4 -3 q5 0 11 -1.5t10.5 -6t4.5 -14.5q0 -49 -95 -130q-86 -73 -143 -89q-13 -4 -29 -4q-34 0 -55 22q-23 25 -19 71q4 70 59 188q57 119 128 210q15 18 1 23q-13 6 -35 -4q-11 -4 -25 -16q-26 -10 -101 -70q-32 -26 -62.5 -52.5t-58.5 -53.5q-6 -7 -12 -7q-8 0 -8 11q0 8 4 13 q20 45 47.5 88.5t65.5 87.5q3 3 3 7q-1 1 -7 0q-11 -2 -16.5 -5t-8.5 -8q-20 -24 -43 -55.5t-49 -71.5q-55 -84 -78 -133q-6 -12 -2 -16q1 -6 12 -4z" />
<glyph unicode="o" horiz-adv-x="371" d="M64 -17q88 13 205 114q60 51 89.5 94.5t32.5 81.5q0 2 -1 5l-2 6q-2 3 0 6q9 12 40 12q15 0 15 6q0 2 -15 4q-42 1 -74.5 2t-55.5 2q-2 1 -3.5 2t-3.5 2q-29 19 -45 18q-22 -1 -44 -22q-7 -4 -11 -4q-1 0 -38 -1q-23 -1 -26 -6t-3 -8q0 -6 9 -12.5t18 -11.5q6 -2 2 -9 q-132 -162 -134 -245q0 -8 4.5 -15t11 -12t14.5 -7.5t15 -1.5zM50 36q58 138 165 237q15 10 17 9q18 7 39 9.5t45 -0.5q45 -5 38 -35q-15 -73 -115 -162q-95 -87 -163 -98q-32 -6 -32 18q0 11 6 22z" />
<glyph unicode="p" horiz-adv-x="417" d="M41 -77q-27 3 -59 3q31 77 59 127.5t52.5 86.5t46 64t40.5 60q38 20 67.5 30t52.5 10q60 0 60 -54q0 -63 -51 -121q-96 -32 -150 -51.5t-67 -27.5q-4 -4 -4 -10q0 -21 21 -19q129 15 213 93q51 17 94 30.5t78 23.5q4 1 7 4q1 1 0 3q-3 1 -7 0q-18 -1 -140 -33 q46 64 46 116q0 66 -72 66q-26 0 -58 -7t-73 -23q38 66 72.5 119t64.5 97q6 9 9 10t3 5q0 7 -13 3q-31 -12 -36 -20q-52 -78 -90 -136t-63 -96q-47 -19 -53 -36q-3 -12 17 -30q-22 -39 -42.5 -78.5t-42.5 -77.5q-12 -20 -20 -36t-15 -30.5t-14.5 -29t-16.5 -32.5 q-85 -1 -169 -14.5t-172 -36.5q-123 -33 -224.5 -85.5t-182.5 -123.5q-159 -137 -159 -316q0 -62 18.5 -113.5t55.5 -96.5q75 -87 181 -87q66 0 137 37q129 71 255.5 256t247.5 486l16 40t16 39q37 0 64 -3q15 -3 15 7q0 6 -15 8zM-80 -164q-23 -49 -44.5 -98.5t-43.5 -97.5 q-41 -91 -84 -166t-86 -137q-116 -170 -229 -231q-56 -31 -121 -31q-50 0 -93.5 17.5t-79.5 54.5q-77 75 -77 181q0 168 182 323q81 71 180 123t217 87q82 24 158.5 36.5t152.5 13.5q-10 -23 -18 -41.5t-14 -33.5z" />
<glyph unicode="q" horiz-adv-x="464" d="M12 73q-3 -11 -3 -20q0 -46 44 -46q28 0 59 21q44 27 90 65.5t95 86.5q7 9 18 9q8 0 8 -7q0 -6 -4 -10q-1 -2 -12.5 -18.5t-26.5 -37.5t-29 -41.5t-19 -28.5q-85 -125 -155 -241.5t-118.5 -219t-73.5 -187t-19.5 -145.5t44 -95t116.5 -35q69 -4 158.5 18t199.5 70 q35 17 66.5 37t57.5 39q-30 -17 -62.5 -34t-68.5 -33q-97 -42 -180 -61.5t-150 -17.5q-232 9 -91 362q31 84 78.5 171t101 173.5t108.5 170t101 161.5q47 66 84 114t64 79q6 7 6 12q0 11 -33 5q-15 8 -34 8q-24 0 -67 -13q-40 -11 -85 -37t-97 -64q-133 -100 -171 -210z M399 300q-26 -30 -63 -67.5t-88 -82.5q-63 -56 -105 -82.5t-64 -26.5t-22 25q0 78 125 186q112 99 198 114q14 3 23.5 -6.5t9.5 -26.5t-14 -33z" />
<glyph unicode="r" horiz-adv-x="271" d="M-19 -13q13 8 23 12.5t18 7.5q8 4 8 7q116 190 264 272q34 18 54 9q3 -2 8 0.5t9.5 7t8 10t3.5 8.5q0 1 -1 2q-15 7 -46 6q-36 -15 -100 -67q-62 -50 -101 -97q-3 -4 -12 -8q-11 -4 -11 1q0 4 3 10q11 22 33.5 54.5t54.5 76.5q5 5 1 11q-2 5 -8 5q-3 0 -4 -2 q-63 -38 -75 -42q-1 -3 0 -7q3 -9 3 -11q0 -10 -6 -25q-35 -81 -132 -231q-3 -5 -1 -10q1 -6 6 0z" />
<glyph unicode="s" horiz-adv-x="494" d="M186 106q-13 7 -34 37q-19 31 -22 51q-7 49 88 114q75 53 132 67q5 1 10.5 1.5t11.5 0.5q11 0 27 -3t39 -11q7 -2 22.5 8t22.5 20q4 4 0 13q-5 6 -11 6q-56 1 -119.5 -19.5t-135.5 -63.5q-144 -84 -136 -151q2 -14 7.5 -27t16.5 -27l32 -43q-118 -82 -135 -103 q-7 -12 6 -13q5 -2 13.5 0t22.5 4q9 -3 21 -3q35 0 91 25q66 28 66 56q0 7 -5.5 18.5t-18.5 28.5q80 46 153.5 75.5t143.5 43.5l-1 1q-75 -13 -151 -37t-157 -69zM53 -14q5 8 17 18t32 24q33 24 49 34q23 -21 23 -37q0 -6 -4 -11q-5 -8 -18.5 -14t-33.5 -14q-43 -15 -61 -11 q-12 2 -4 11z" />
<glyph unicode="t" horiz-adv-x="757" d="M172 -556q67 0 142.5 40t162.5 118q171 155 191 287q2 23 -28 68q-29 43 -61 43q-8 0 -12 -1q-26 -11 -35.5 -17t-14.5 -14q-2 -9 8 -9q5 0 16 7t26 9q67 11 67 -83q-8 -54 -43.5 -114t-101.5 -129q-64 -69 -126 -112t-125 -63q-43 -13 -78 -13q-123 0 -123 174v24 q0 11 1 24q8 93 48 209.5t109 259.5q45 90 92 167t100 155q8 13 25 16q94 5 167.5 9.5t130.5 6.5q9 1 14.5 9.5t5.5 10.5q-3 3 -12 3q-8 0 -40.5 0.5t-91.5 0.5h-145q-23 0 -7 23q217 298 311 317q10 3 10 7q0 9 -11 9q-12 0 -22.5 -4.5t-34.5 -12.5q-50 -19 -56 -26 q-69 -80 -132 -154.5t-111 -149.5q-2 -3 1 -6t-1 -3q-48 0 -74.5 -3t-29.5 -9q-8 -17 28 -31q18 -10 18 -28q0 -17 -12 -30q-51 -74 -102 -167t-102 -209q-115 -263 -115 -404q0 -43 7 -79.5t34 -65.5q52 -60 132 -60z" />
<glyph unicode="u" horiz-adv-x="470" d="M443 297q3 5 2.5 14.5t-4.5 18t-11 11.5t-16 -6q-30 -27 -69 -68t-81.5 -84t-86 -82.5t-82.5 -63.5q-25 -14 -37.5 -2.5t-0.5 52.5q7 27 25.5 63t41.5 74t48.5 75t48.5 65q9 12 8 18.5t-7 8.5t-14.5 -0.5t-13.5 -8.5q-13 -15 -30.5 -38.5t-37.5 -52.5t-39.5 -61.5 t-36 -64t-27 -61.5t-12.5 -53q-2 -25 15 -42.5t44 -8.5q16 5 49.5 32.5t72.5 63t77.5 72t62.5 60.5q18 18 24 8.5t0 -24.5q-7 -17 -15.5 -36.5t-15.5 -39.5t-11.5 -41t-4.5 -40q0 -10 5.5 -19.5t13 -17t16.5 -11.5t15 -2q13 5 27.5 14.5t24.5 20.5q12 11 10.5 19.5 t-17.5 -2.5q-6 -4 -16 -8.5t-17 -6.5t-14.5 -4t-12.5 -0.5t-7.5 9.5t0.5 26q3 20 15 50t27.5 61.5t32.5 61.5t31 51z" />
<glyph unicode="v" horiz-adv-x="321" d="M47 11q12 -1 19 1q6 2 9 4l3 2q20 0 43 22q51 43 124 130q32 38 56 69.5t41 56.5q9 11 12 8q5 -5 13 -8.5t19 -6.5q14 -3 14 7q0 3 -3 5q-12 9 -13 21q-2 19 27 60q1 1 -1.5 5t-7 7.5t-9 6t-6.5 1.5q-7 -4 -17 -11t-24 -18q-7 -19 -9.5 -32t-5.5 -18q-25 -35 -49.5 -69 t-50.5 -69q-38 -51 -67 -86t-50 -52q-15 -12 -25 -12q-15 0 -15 22q0 9 3 21q22 80 113 224q1 2 2 3.5t1 3.5q0 13 -16 13q-7 0 -10 -4q-124 -171 -149 -282q-3 -8 7 -16t22 -9z" />
<glyph unicode="w" horiz-adv-x="527" d="M568 260q-28 0 -39 4q-16 37 -33 37q-9 0 -18 -7t-10 -14q-2 -5 6.5 -15.5t21.5 -13.5q-4 -76 -57 -145q-53 -68 -108 -82q-39 -8 -43 41q-1 6 -1 12v14q0 31 6.5 65.5t17.5 75.5q11 35 20.5 60.5t20.5 42.5q1 5 -7 6q-8 0 -18 -1.5t-14 -5.5q-10 -16 -17 -28t-12 -23 q-25 -39 -89 -117q-38 -45 -67.5 -75.5t-51.5 -46.5q-4 -4 -11 -4q-11 0 -11 14q0 4 2 10q7 20 22 49t39 66q32 51 49.5 78.5t19.5 32.5q3 6 3 11q0 12 -15 12q-12 0 -13 -7q-2 -9 -20.5 -39.5t-53.5 -82.5q-35 -53 -55 -90t-24 -60q-1 -7 9.5 -17t16.5 -10q21 -3 54 25 q33 27 73.5 74t89.5 114q5 7 10 4q5 -2 2 -8q-25 -74 -25 -157q0 -11 2 -17q8 -21 22 -32.5t24 -10.5q84 8 157 81q76 76 92 165q9 0 17 2l16 4q5 2 5 5q0 4 -5 4z" />
<glyph unicode="x" horiz-adv-x="274" d="M392 298q8 4 10 10.5t-0.5 11.5t-7.5 8t-12 -1q-20 -10 -53.5 -32t-70.5 -48t-71 -51.5t-53 -40.5q-5 14 -8.5 34.5t-7 42t-6.5 43t-6 37.5q-1 9 -5 10.5t-8 -1t-7 -8t-2 -11.5q1 -15 4 -37t7 -45t8.5 -45.5t8.5 -37.5q-24 -20 -53 -44.5t-59 -52.5t-59.5 -57.5 t-54.5 -58.5q-23 -29 -43 -57.5t-30.5 -57t-9 -56.5t19.5 -54q12 -17 30.5 -29t33.5 -15q8 -3 10.5 1t-5.5 7q-17 4 -33.5 14t-27.5 30q-16 25 -12.5 54t17.5 57t33 53t33 41q28 32 58 61.5t58.5 55.5t54.5 47t47 36q6 -19 16 -44.5t21.5 -51t23.5 -47.5t21 -33 q11 -11 16.5 -9t-6.5 17q-11 13 -22 37.5t-20.5 51.5t-17.5 53t-11 42q21 16 55 41t70 50.5t70 47.5t56 31z" />
<glyph unicode="y" horiz-adv-x="397" d="M266 0q-150 -29 -292.5 -71t-281.5 -96q-403 -159 -480 -338q-15 -36 -15 -75q0 -118 121 -213q120 -96 264 -87q420 27 715 868q115 24 296 24q23 0 41.5 -0.5t32.5 -1.5q49 -4 49 -40q0 -43 -59 -99q-10 -7 -10 -13q0 -1 2 -1q6 0 14 8q52 41 65 66q6 9 6 22t-6 25 t-15.5 22t-21 17t-22.5 9q-27 6 -76 6q-139 0 -291 -28q43 129 63 201q5 9 8.5 14.5t7.5 10.5q2 10 -6.5 19t-25.5 8q-7 -1 -13.5 -7.5t-11.5 -15.5q-14 -13 -37.5 -31t-56.5 -41q-42 -29 -74.5 -47.5t-55.5 -27.5q-8 -3 -18 0q-8 3 -8 13q0 5 3 13q19 38 60 98q49 69 70 78 q-2 17 -16 16q-8 -1 -44 -17q-34 -15 -38 -22q-3 -6 -1.5 -19t-0.5 -17q-85 -154 -91 -174q-2 -7 4 -14t15 -7q3 0 9 2q57 22 153 87q73 49 122 92q-2 -14 -6.5 -37t-12.5 -57q-18 -78 -34 -122zM-763 -532q66 166 392 316q273 125 633 199q-44 -134 -99.5 -254.5 t-122.5 -229.5q-220 -352 -460 -361q-139 -6 -250 79q-106 82 -106 187q0 17 3.5 32.5t9.5 31.5z" />
<glyph unicode="z" horiz-adv-x="250" d="M130 118q-6 -1 -6 6t3 9q8 12 24 34t32 47.5t29 51.5t15 48q1 10 -2 21.5t-8.5 21t-13 14.5t-14.5 4q-14 -3 -31.5 -18t-34 -33.5t-30 -36.5t-20.5 -28q-5 -8 -4 -16t9 3q9 12 21 27t24.5 29t25 25t22.5 14q10 2 16.5 -9t1.5 -34q-5 -20 -18.5 -49t-30 -57.5t-33 -52.5 t-26.5 -34q-8 -8 -4.5 -15t8.5 -5q14 3 30.5 -2t21.5 -21l-11 -3q-296 -57 -565 -165q-402 -158 -480 -338q-15 -36 -15 -74q0 -119 121 -214q118 -95 264 -87q420 27 715 868q58 13 131.5 18.5t164.5 5.5q23 0 41.5 -0.5t32.5 -1.5q49 -4 49 -39q0 -45 -59 -99 q-10 -9 -10 -14q0 -1 2 -1q6 0 14 8q52 41 65 66q2 5 4 10.5t2 11.5q0 13 -6 25t-15.5 22.5t-21 17.5t-22.5 9q-14 2 -32.5 3.5t-43.5 1.5q-66 0 -141.5 -4.5t-150.5 -18.5q0 2 -0.5 2.5t-0.5 1.5q-6 8 -6 18q-1 0 -1 -1t-2 -1q-5 11 -10.5 15t-19.5 13zM-895 -471 q66 167 393 317q272 124 633 199q-45 -134 -100 -254.5t-123 -229.5q-218 -353 -459 -362q-141 -5 -250 79q-106 82 -106 187q0 17 3.5 32.5t8.5 31.5z" />
<glyph unicode="{" horiz-adv-x="421" d="M38 -66q-4 -48 6.5 -75t26.5 -44q10 -12 22.5 -19t24.5 -11t22 -5.5t16 -2.5q-12 13 -27.5 23.5t-29 25.5t-21.5 37.5t-5 59.5q0 14 5 41.5t11.5 60t13.5 66t13.5 59.5l10 40t3.5 8q2 34 -5 56t-19 35.5t-25.5 20.5t-24.5 11q37 7 61.5 21.5t41.5 39t29 59.5t24 84 q15 60 29 111t35 88t52 57.5t79 19.5l6 28q-27 2 -60.5 -4t-70.5 -41q-20 -19 -34 -40.5t-24.5 -47t-18.5 -55t-16 -64.5q-14 -59 -26.5 -102t-31 -72.5t-46.5 -47.5t-73 -27l-2 -6q43 -17 66 -40.5t19 -73.5z" />
<glyph unicode="|" horiz-adv-x="116" d="M94 741q1 16 -7.5 23t-19.5 7q-10 0 -19 -6t-10 -18q-1 -25 -1 -61t0.5 -79.5t2.5 -92.5t5 -99q-1 -56 -3.5 -113.5t-6 -109.5t-6.5 -94t-5 -67q-1 -16 7 -23t18 -7q11 0 20.5 6t9.5 18q2 51 0 139q1 2 0.5 5.5t-0.5 7.5q-1 42 -2.5 87t-3.5 92q1 56 3.5 114t6 109.5 t6.5 94t5 67.5z" />
<glyph unicode="}" horiz-adv-x="421" d="M384 673q4 48 -6 75t-27 44q-10 12 -22 19t-24 11t-22.5 6t-16.5 3q12 -13 27.5 -24t29 -26t22 -37.5t5.5 -59.5q-1 -14 -5 -39.5t-10 -56t-13 -62.5t-13 -58.5t-10.5 -43.5t-5.5 -17q-3 -33 4.5 -54.5t19 -35t25 -20.5t24.5 -11q-37 -7 -61.5 -21.5t-41.5 -39t-29 -59.5 t-24 -84q-15 -60 -29 -111t-35 -88t-52 -57.5t-79 -19.5l-5 -28q13 0 28 0.5t31.5 4.5t34.5 13.5t37 26.5q20 19 34 41t24 47t18 54.5t16 64.5q14 59 26.5 102t31 72.5t46.5 47.5t73 27l3 6q-44 17 -67 40.5t-18 73.5z" />
<glyph unicode="~" horiz-adv-x="343" d="M18 267l29 22q15 12 30 17.5t29 5.5q17 0 68 -30q53 -28 67 -28t33 16.5t43 48.5q3 6 5 10.5t2 9.5q0 3 -4 3q-6 0 -15 -10q-11 -13 -26 -20t-38 -7q-10 0 -27 6t-44 21q-48 31 -64 31q-14 0 -34.5 -18t-46.5 -54q-4 -7 -6.5 -12.5t-2.5 -7.5q0 -4 2 -4z" />
<glyph unicode="&#xa1;" horiz-adv-x="246" d="M111 238q-15 -28 -41.5 -78t-64.5 -124q-26 -52 -48 -92t-40 -69q-1 -2 -5.5 -3t-9 -1.5t-9 -1.5t-5.5 -4q-6 -11 -2 -36q2 -25 8 -27q11 -3 28.5 1.5t21.5 13.5q55 152 185 411q1 2 1 6q0 11 -9 11q-6 0 -10 -7zM150 361q0 -52 8 -62q2 -2 6 -2q10 0 26 7.5t19 13.5 q4 4 0 30q-3 24 -8 29q-1 4 -8 4q-13 0 -28 -7t-15 -13z" />
<glyph unicode="&#xa2;" horiz-adv-x="395" d="M92 73q4 -2 2 -6q-11 -16 -19 -29t-14 -24q-6 -6 7 -9t18 5q8 14 15.5 26t14.5 23q1 2 7 2q85 0 200 94q7 4 7 11q0 4 -4 4t-8 -3q-93 -72 -168 -85q-47 -8 -47 36q0 5 1 11t3 13q20 76 83 152q32 38 65.5 65.5t68.5 42.5q8 2 19 2q15 0 29 -2.5t26 -6.5q8 -1 17 10 q2 5 4 9t3 8q2 4 -6.5 9t-13.5 5q-21 3 -49 -10q-5 -3 0 4q50 69 51 67q-2 4 -6 4q-3 -2 -5.5 -3t-4.5 -3q-17 -24 -31 -42t-25 -32l-3 -3q-93 -37 -175 -122q-87 -93 -97 -175q-1 -5 2 -12.5t8.5 -14.5t12 -12.5t12.5 -8.5z" />
<glyph unicode="&#xa3;" horiz-adv-x="698" d="M386 319q-27 2 -54 4.5t-41 -1.5q-12 -3 -15 -9t1.5 -11.5t15 -9t25.5 -1.5q5 2 6 4t8 2q11 1 23.5 0t20.5 -2q5 -1 5.5 -3t0.5 -5q-14 -41 -30 -77.5t-32 -66t-30.5 -50.5t-25.5 -31q-6 -6 -10.5 -8t-14.5 4q-43 30 -79.5 53t-71.5 28q-16 1 -31.5 -6.5t-26 -20.5 t-14 -30t2.5 -34q10 -28 33.5 -50.5t55 -32t68 -0.5t73.5 44q3 2 7 3t10 -4q21 -18 47.5 -37.5t54.5 -36.5t55 -32t49 -24t50.5 -12.5t57 0.5t54 16t42.5 34q6 9 2 13t-10 -4q-30 -33 -64.5 -42t-70 -2.5t-71.5 25t-68.5 40.5t-60.5 43.5t-48 34.5q-7 5 -6.5 9.5t8.5 13.5 q26 26 56 87.5t59 151.5q0 4 8 4q13 -1 34 -3t44.5 -4.5t46 -5t38.5 -4.5q8 -1 10 4.5t-6 7.5q-14 4 -36.5 9t-46 9t-43.5 7t-29 5q-7 0 -3 8q31 75 65 131.5t66.5 92t61.5 48.5t51 0q1 0 2.5 -4t3 -7.5t3 -5.5t2.5 1q4 12 0 19t-11.5 10.5t-16.5 5t-16 2.5 q-70 2 -126.5 -75.5t-107.5 -214.5q-2 -7 -10 -7zM53 109q14 2 26.5 1t30 -8.5t44 -23t68.5 -42.5q8 -4 8.5 -6.5t-7.5 -10.5q-33 -31 -63.5 -37.5t-56 2.5t-44 28.5t-26.5 39.5t-4 37t24 20z" />
<glyph unicode="&#xa4;" horiz-adv-x="625" d="M26 432q26 14 47 14q5 0 13.5 -2.5t22.5 -7.5q-10 -16 -20 -31t-19 -30v1q-20 8 -33 13t-18 5l-11 -4t-24.5 -11t-24.5 -17t-11 -22q0 -2 1 -2l23 13q25 13 47 13q12 0 39 -12q-39 -81 -39 -154q0 -46 14.5 -83.5t46.5 -66.5q61 -50 146 -52q51 -2 104 15.5t110 51.5 q83 50 120 74t34 24.5t-42.5 -19.5t-109.5 -57q-57 -30 -110.5 -47.5t-105.5 -19.5q-41 -1 -74.5 10t-57.5 32.5t-37.5 53t-13.5 72.5q0 12 1.5 24t3.5 24q5 26 14 53.5t23 53.5q15 -6 25 -8.5t15 -2.5q21 0 60 39q2 3 5 8t-3 5q-5 0 -11 -6q-16 -16 -51 -16q-5 0 -12 1 t-16 4q8 15 16.5 30t18.5 30q36 -14 47 -14t25.5 10t34.5 29q2 3 5 8t-3 5q-4 0 -11 -5q-17 -17 -51 -17q-5 0 -12.5 1t-18.5 6q16 22 34.5 44t38.5 45q35 38 70.5 71.5t71 58t71 38.5t70.5 14q29 0 46.5 -12t29.5 -47q9 -52 -4 -100t-30 -95q19 19 32.5 48t19.5 60t5 62 t-11 54.5t-29.5 37t-48.5 9.5q-28 -2 -53 -8t-50.5 -18t-53.5 -30.5t-61 -44.5q-51 -40 -93.5 -84.5t-78.5 -92.5q-40 17 -51 17l-11 -4t-24.5 -11t-24.5 -17t-11 -22q0 -2 1 -2z" />
<glyph unicode="&#xa5;" horiz-adv-x="427" d="M-72 12h119q-41 -50 -73.5 -98t-46.5 -78q-11 -24 -3 -28t24 23q25 42 59.5 87.5t74.5 93.5h133q16 0 16 18q0 11 -12 11h-112q20 24 42 48.5t45 49.5q12 13 25 26.5t25 27.5h2h50q24 0 44 1q12 0 12 15q0 8 -9 8h-75q54 55 108.5 107.5t104 99t92.5 84.5t75 64 q10 9 9 16.5t-8.5 10.5t-18.5 1.5t-20 -9.5q-62 -54 -124 -113.5t-120.5 -119t-111.5 -115.5t-96 -103q-2 28 -1.5 65.5t3 79t6 84.5t8 81.5t8.5 70t7 49.5q4 21 -4 28.5t-19 5.5t-21.5 -12.5t-11.5 -25.5t-3.5 -50.5t-5.5 -83.5t-5 -104t-1 -111h-85q-15 0 -15 -17 q0 -7 8 -7h49q24 0 44 1q1 -24 2 -46.5t3 -42.5q-13 -16 -26.5 -31.5t-27.5 -32.5h-135q-20 0 -20 -16q0 -13 13 -13z" />
<glyph unicode="&#xa6;" horiz-adv-x="151" d="M73 32q-2 -16 6.5 -23t18.5 -7q11 0 20.5 6.5t9.5 17.5q1 41 0.5 109.5t-4 148.5t-9 162.5t-13.5 151.5q-2 27 -9.5 24.5t-5.5 -28.5q5 -39 6 -89.5t0 -104.5t-3.5 -109.5t-6 -104.5t-6.5 -89.5t-4 -64.5zM80 733q1 15 -7 22t-19 7q-10 0 -19.5 -6t-9.5 -18 q-2 -41 -1 -109.5t4.5 -148t9 -162.5t13.5 -152q2 -26 9.5 -24t5.5 28q-5 39 -6 89.5t0 105t3.5 110t6 104.5t6 89.5t4.5 64.5z" />
<glyph unicode="&#xa7;" d="M56 -59q-49 -23 -43 -59q8 -39 60 -55q17 -5 37.5 -8.5t43.5 -3.5q32 0 59.5 6t53.5 17q59 28 49 88q-3 14 -9.5 28.5t-17.5 28.5h15h31q18 0 34.5 0.5t24.5 1.5q22 0 22 3q0 2 -7 2h-29h-39h-37h-22q-45 48 -78.5 82.5t-55.5 56.5q-34 38 -40 67q15 -17 44 -24 q37 -13 81 -13q32 0 59.5 6.5t53.5 17.5q59 27 49 88q-2 10 -6 21t-13 24q-1 4 -2.5 6t-3.5 4q-1 1 -1 2q13 -1 21.5 0.5t9 3t-8 2.5t-30.5 0q-46 48 -79 82.5t-55 56.5q-17 23 -28 41t-13 32q-6 37 24 61q63 54 174 54q41 0 74 -9q25 -6 45 -26q10 -11 17 -23.5t9 -28.5 q2 -10 1.5 -18.5t0.5 -11.5t4 0q1 2 1 3q0 2 2 5q3 18 0 35q-4 26 -24 49q-20 20 -42 27q-30 9 -75 9q-121 0 -197 -57q-37 -26 -31 -67q8 -38 50 -83q36 -38 66 -71t55 -61q-17 -2 -33.5 -3.5t-31.5 -3.5q-40 -4 -73 -15t-67 -26q-45 -20 -44 -53q-3 -14 0 -28 q6 -37 49 -83q36 -39 66 -72t55 -60q-127 -10 -205 -48zM266 -19q27 -25 31 -55q4 -22 -6 -40.5t-35 -31.5q-48 -27 -111 -27q-18 0 -35.5 1.5t-35.5 6.5q-8 2 -14.5 5t-13.5 8q-16 12 -21 27q-5 28 42 52q21 13 48.5 22t61.5 17q17 3 39 7t50 8zM383 272q5 -25 -8 -41 t-37 -32q-20 -13 -49.5 -18.5t-60 -4t-58.5 8.5t-46 17.5t-21 24t16 28.5t64 30.5t125 29.5q7 1 17 2t20 -1q16 -5 26.5 -16t11.5 -28z" />
<glyph unicode="&#xa8;" horiz-adv-x="256" d="M234 563q0 23 -2 35t-6 17q-4 2 -6 2q-9 0 -21 -8q-13 -6 -16.5 -10.5t-0.5 -25.5q3 -20 6 -26q3 -3 8 -3q11 0 24.5 6.5t13.5 12.5zM82 563q0 44 -6 52q-2 2 -7 2q-23 0 -37 -19q-3 -4 0 -25q2 -20 5.5 -24.5t7.5 -4.5q10 0 23.5 6.5t13.5 12.5z" />
<glyph unicode="&#xa9;" horiz-adv-x="684" d="M670 466q-6 68 -37 125.5t-79.5 99t-110.5 62.5t-130 15t-125.5 -37t-98.5 -79.5t-62 -110.5t-15 -130t37 -125t79.5 -98t110.5 -62t130 -15q67 6 125 37t99 79t62 109.5t15 129.5zM647 465q5 -63 -14 -120.5t-57 -102.5t-92 -74t-117 -34t-120.5 14.5t-102.5 57.5 t-74 92t-35 117q-5 63 14.5 120.5t57.5 102.5t92 74t117 34t120.5 -14.5t102.5 -57.5t73.5 -92t34.5 -117zM541 387q17 17 12.5 22t-16.5 -7q-22 -22 -59.5 -46.5t-81.5 -46.5t-91.5 -37.5t-88.5 -19.5q-48 -5 -63 21t-1 75q9 32 36 75.5t64.5 85.5t80.5 77t84 50 q19 9 27 3.5t10 -17t0.5 -26t-2.5 -24.5q-2 -22 5.5 -25t19.5 19q7 13 14 28.5t12 36.5q1 10 -3 20t-12.5 16.5t-20.5 9t-26 -1.5q-25 -7 -58 -26t-69 -47t-70.5 -62t-63.5 -71t-48 -75t-23 -73q-3 -22 7 -41.5t26.5 -33.5t36.5 -21t39 -4q41 7 91 27.5t96.5 46t83.5 51 t52 41.5z" />
<glyph unicode="&#xaa;" horiz-adv-x="431" d="M50 617q39 20 91 59q26 20 47 37t35 33l1 1q5 0 2 -6q-21 -25 -41 -67q-34 -64 -35 -108q-3 -25 19 -41q20 -13 49 -13q17 0 35 5q17 5 37.5 17t46.5 29q52 39 80 75q3 4 3 7v0q0 1 -1 1q-3 0 -8 -5q-14 -17 -34 -34t-44 -34q-26 -18 -46.5 -29.5t-37.5 -16.5 q-11 -2 -21.5 -4t-21.5 -2q-48 0 -48 36q0 6 1 9q6 31 20 65.5t40 72.5q16 23 33.5 46.5t34.5 47.5q0 2 -1.5 4t-3.5 2t-2.5 -0.5t-1.5 -0.5q-3 -2 -7 -3.5t-9 -3.5h-11q-13 5 -30 5q-12 0 -24 -3q-24 -8 -51 -26t-59 -44q-67 -59 -67 -97q0 -18 15 -18q7 0 15 4zM59 662 q8 17 22.5 35.5t35.5 38.5q42 43 72 48q4 2 7 2.5t6 0.5q14 0 21.5 -5t7.5 -11q0 -2 -2 -4q-87 -92 -152 -127q-5 -3 -10 -3q-11 0 -11 13q0 6 3 12z" />
<glyph unicode="&#xab;" horiz-adv-x="334" d="M57 151q16 30 122 115q7 7 4 10q-4 4 -13 -1q-140 -87 -151 -110q-6 -8 29 -139q3 -8 7 -8q7 0 6 11q-12 103 -4 122zM196 151q8 14 38 43t84 72q5 5 2 10q-3 3 -12 -2q-138 -86 -151 -109q-4 -9 30 -139q2 -8 7 -8q6 0 5 11q-12 104 -3 122z" />
<glyph unicode="&#xac;" horiz-adv-x="1055" d="M50 274q16 1 45.5 5t65.5 10t75.5 13t74.5 13q70 11 148 21.5t153.5 18t144.5 10.5t122 -3q19 -2 46 -8.5t49 -20t32.5 -35.5t-2.5 -55q-4 -21 -19.5 -43t-29.5 -39t-20.5 -27t7.5 -6q18 18 28.5 27t18.5 16.5t15 17t17 28.5q18 34 8.5 62.5t-33.5 50.5t-54.5 35.5 t-53.5 18.5q-40 8 -108 7t-150 -7t-170.5 -15t-170.5 -17q-33 -3 -70 -8t-72 -9.5t-64 -7.5t-45 -3q-19 -3 -15.5 -7t13 -9.5t16.5 -13t-6 -19.5z" />
<glyph unicode="&#xad;" horiz-adv-x="229" d="M37 166h147q26 0 26 17q0 10 -17 10h-141q-32 0 -32 -18q0 -9 17 -9z" />
<glyph unicode="&#xae;" horiz-adv-x="485" d="M459 674q-4 46 -24.5 85t-52.5 67t-72.5 42t-85.5 10q-44 -4 -82 -24.5t-65 -53.5t-41 -74.5t-10 -87.5q3 -46 23.5 -85t52.5 -66.5t73 -41.5t86 -10q26 2 50.5 10.5t46.5 22.5q12 -8 22 -13t18 -6q16 -3 26.5 -1.5t17.5 5t11 8.5t7 9q-11 -14 -28.5 -15.5t-31.5 2.5 q-5 2 -13 6t-18 12q45 33 70 85.5t20 113.5zM387 730q-9 10 -24.5 21.5t-36 21.5t-45 17t-51.5 10q-58 4 -92.5 -12.5t-42.5 -49.5q-5 -16 -0.5 -33.5t13.5 -30.5q1 -1 3 -0.5t0 2.5q-6 11 -9 27.5t3 33.5q11 34 44.5 44t77.5 6q56 -4 99 -25t56 -44q9 -13 5 -24t-18 -21 q-17 -12 -41.5 -19.5t-49 -11.5t-46 -5t-33.5 0q18 23 39 45t50 48q4 4 2 11t-10 5q-11 -8 -24 -21t-26.5 -27.5t-26 -29.5t-21.5 -28q-9 1 -12 -1q-6 -7 0 -15q-17 -23 -30 -47.5t-11 -52.5q0 -16 7 -22q3 -3 5 -1.5t0 4.5q-2 2 -4 7t0 10q4 25 13.5 45.5t28.5 45.5 q10 -9 28.5 -25.5t41.5 -36t47.5 -39.5t46.5 -35q-38 -24 -83 -27q-42 -4 -80 9.5t-68 39t-49 62t-22 78.5q-4 43 9 82t38 69.5t60.5 50t77.5 23.5q41 3 78.5 -10t67 -39t48.5 -62t23 -79q5 -59 -19 -108.5t-69 -80.5q-20 15 -44 34.5t-45.5 38.5t-39.5 35t-26 25q-7 8 2 7 q16 -1 40 1.5t49 7.5t48 13.5t38 20.5q17 13 19.5 30.5t-9.5 31.5z" />
<glyph unicode="&#xaf;" horiz-adv-x="331" d="M57 648h119t101 1q30 0 30 14q0 8 -21 8h-210q-38 0 -38 -15q0 -8 19 -8z" />
<glyph unicode="&#xb0;" horiz-adv-x="201" d="M174 493q0 26 -19 44t-46 18q-26 0 -45 -18t-19 -44t19 -44.5t45 -18.5q27 0 46 18.5t19 44.5zM109 442q-21 0 -36 15t-15 36q0 20 15 35t36 15q20 0 36 -15t16 -35q0 -21 -16 -36t-36 -15z" />
<glyph unicode="&#xb1;" horiz-adv-x="418" d="M398 340q7 1 13 7.5t-4 18.5q-5 8 -18 17t-18 10q-6 0 -6.5 -2t4.5 -4q10 -5 16 -13q5 -5 5 -9q0 -3 -3 -5.5t-7.5 -4t-8.5 -1.5q-31 -8 -68.5 -10.5t-78.5 -2.5q27 45 55 87.5t52 74.5q6 7 15.5 15t17.5 11q2 1 1 3.5t-6 0.5q-4 -1 -11 -3.5t-14.5 -6.5t-13.5 -7.5 t-8 -6.5q-19 -25 -47.5 -70t-57.5 -98q-42 1 -81 4t-71 8q-8 2 -18 6.5t-17 10.5q-1 1 -2.5 -1t2.5 -7q2 -3 7 -7.5t11 -9.5t11 -9t7 -4q23 -3 60.5 -5.5t81.5 -2.5q-23 -42 -43 -83.5t-32 -75.5q-1 -4 -1.5 -9t1 -9t5.5 -5.5t12 1.5q9 2 23.5 11t19.5 14q3 5 2 7t-5 -3 q-13 -7 -21 -10q-7 -3 -10 -1.5t-3 5.5q0 5 1.5 10.5t3.5 9.5q22 64 65 138q50 2 98.5 5t83.5 11zM32 73h79h96q49 0 92 0.5t66 0.5q30 0 30 14q0 8 -21 8h-323q-38 0 -38 -16q0 -7 19 -7z" />
<glyph unicode="&#xb2;" horiz-adv-x="239" d="M172 375q8 0 8 5t-10 5q-100 0 -100 8q0 2 6 4q23 8 45.5 21.5t45.5 30.5q57 41 57 81q0 17 -11 33q-14 18 -41 19q-39 3 -73 -17q-8 -5 -8 -12q0 -3 3 -1q29 17 56 17q8 0 16 -3q18 -3 30 -19q10 -14 8 -28q-6 -37 -51 -71q-30 -24 -65 -40q-15 -7 -30 -11.5t-29 -8.5 q-16 -2 -16 -12q0 -5 8 -4q31 2 58.5 3t53.5 1h21t18 -1z" />
<glyph unicode="&#xb3;" horiz-adv-x="249" d="M196 415q5 9 5 22q0 19 -13 32.5t-33 15.5q-3 0 -3 2t3 4q27 11 46 23t28 27q5 10 5 18q0 24 -32 24q-18 0 -33.5 -4t-28.5 -11q-7 -6 -7 -10q0 -5 2 -3q31 14 58 14q17 0 17 -17q0 -10 -4 -19q-5 -8 -14.5 -15t-23.5 -15q-28 -17 -50 -17q-10 0 -10 -7q0 -3 2 -3 q35 4 55 -12q14 -10 14 -32q0 -9 -3 -16q-13 -31 -60 -53q-19 -8 -36 -13t-33 -5q-22 0 -22 13q-1 8 -6 8q-10 0 -10 -13t39 -13q34 1 79 20q52 21 69 55z" />
<glyph unicode="&#xb4;" horiz-adv-x="266" d="M362 537q28 11 70 25t99 32q10 3 10 14q0 22 -16 22q-6 0 -79 -37q-44 -22 -66 -32.5t-24 -11.5q-6 -3 -4 -9q3 -5 10 -3z" />
<glyph unicode="&#xb5;" horiz-adv-x="448" d="M429 366q2 6 -0.5 16t-7.5 17t-12.5 8.5t-15.5 -9.5q-26 -31 -58 -77t-67.5 -95.5t-72 -95t-71.5 -74.5q-13 -11 -25.5 -13.5t-21 4.5t-11 22t4.5 38q3 27 16.5 64t32 77t39.5 79.5t39 71.5q8 13 6 19t-9 6.5t-15.5 -3.5t-12.5 -12q-11 -18 -27.5 -49.5t-33.5 -69 t-32.5 -78.5t-25.5 -78q-6 -19 -14.5 -46t-18.5 -58t-21 -63.5t-21.5 -63t-20 -56t-16.5 -42.5q-1 -2 -5.5 -3t-9 -2.5t-8.5 -3.5t-5 -5l0.5 -10t2.5 -21.5t4.5 -20.5t7.5 -7q6 -2 13.5 -0.5t15 5t13 8t5.5 9.5q13 56 31.5 124.5t42.5 153.5q8 -17 24.5 -22.5t39.5 5.5 q9 5 25.5 21.5t36.5 40t42.5 51.5t44 56t40.5 53.5t33 44.5q7 10 13 12t9 -0.5t3.5 -9t-1.5 -13.5q-4 -19 -15 -47.5t-21.5 -59t-17 -59t-3.5 -47.5q1 -10 7.5 -19t15.5 -15t18.5 -8.5t15.5 0.5q12 6 24.5 18.5t21.5 23.5q10 14 6.5 22t-17.5 -5q-7 -8 -18.5 -16.5 t-23 -11.5t-19 3t-7.5 29q0 20 13 59t30.5 82t35.5 83t29 63z" />
<glyph unicode="&#xb6;" horiz-adv-x="647" d="M174 732q-46 -48 -75.5 -104t-45 -111.5t-17.5 -107t8 -91.5t32 -64t54 -25q22 -7 45 -3t45 14t42 24t37 27q-9 -17 -21.5 -46t-26 -62.5t-27 -68.5t-24.5 -65.5t-18.5 -52.5t-9.5 -30q-3 -16 0 -29t4 -27q11 -11 12 -12.5t0.5 -1t2 -1.5t16.5 -15q-8 17 -9.5 22.5 t-1.5 6.5q-4 11 7.5 51.5t34 101.5t53 137.5t65.5 158t70.5 163.5t68 154.5t58.5 131t41 92.5q6 10 18.5 32.5t24.5 47.5t20 47.5t5 33.5l-2.5 5t-9.5 4q-6 -1 -15 -7.5t-15 -12t-7 -6.5q9 -5 9 -21q0 -15 -5 -36t-15 -44t-20 -42l-33 -66q-14 2 -37.5 4.5t-39.5 3.5t-18 1 q-87 9 -153 -19.5t-127 -91.5zM210 749q28 28 62.5 45t71.5 25t73 8.5t66 -4.5q3 0 11 -0.5t17 -1.5t17.5 -2.5t13.5 -2.5q-31 -68 -52 -112t-34.5 -72t-21.5 -44t-13.5 -28.5l-11 -25t-14.5 -32.5q-6 -10 -9 -1.5t-3 28.5t2.5 48.5t7 57.5t10.5 55t14 42q2 4 -7.5 -9 t-27.5 -35t-41.5 -48.5t-50 -49t-53 -37t-50.5 -12.5q-18 3 -25 20t-5.5 42.5t10.5 57t24 62.5z" />
<glyph unicode="&#xb7;" horiz-adv-x="113" d="M82 42v11t-1 16t-2 15.5t-3 9.5q-3 3 -9.5 1.5t-13.5 -4.5t-13 -7t-8 -7t-1.5 -10t1.5 -15.5t2.5 -16t3.5 -10.5q3 -3 10 -2t14.5 4t13.5 7.5t6 7.5z" />
<glyph unicode="&#xb8;" horiz-adv-x="132" d="M91 7q-26 -18 -43 -35q-6 -6 5 -9q20 -6 29 -17t0 -25q-3 -6 -11 -13.5t-18 -13.5t-21 -10t-21 -5q-8 0 -7 -4.5t9 -4.5q13 1 27.5 6t27.5 12t23 14.5t14 14.5q6 12 4.5 21t-7 15.5t-12.5 10.5t-12 6t-4.5 5t2.5 5q5 6 10.5 12t11.5 10q5 4 1.5 6t-8.5 -1z" />
<glyph unicode="&#xb9;" horiz-adv-x="198" d="M119 392q29 0 40 0.5t9 4.5q0 3 -7 2q-6 0 -18.5 1t-30.5 4q-16 3 -17 11q0 4 1 7q6 27 37 81q29 54 41 63q0 5 -0.5 8t0.5 5q6 4 10 7t7 5t3 6q-3 5 -7 5q-2 0 -4 -1q-29 -21 -108 -52q-2 -2 -3.5 -2.5t-2.5 -2.5q0 -3 5 -3q1 0 1.5 0.5t2.5 0.5q16 5 31 11t30 11 q1 1 3 1t4 -3q0 -2 -1 -4q-24 -49 -40 -87t-26 -65q-19 -1 -32 -1.5t-19 -2.5q-9 0 -7 -9q2 -4 9 -4q19 3 77 3h12z" />
<glyph unicode="&#xba;" horiz-adv-x="201" d="M174 493q0 26 -19 44t-46 18q-26 0 -45 -18t-19 -44t19 -44.5t45 -18.5q27 0 46 18.5t19 44.5zM109 442q-21 0 -36 15t-15 36q0 20 15 35t36 15q20 0 36 -15t16 -35q0 -21 -16 -36t-36 -15z" />
<glyph unicode="&#xbb;" horiz-adv-x="370" d="M286 154q-14 -28 -122 -116q-8 -6 -3 -9q1 -6 11 2q22 15 45 29.5t46 29.5q57 40 61 50q6 7 -29 138q-2 9 -7 9q-6 0 -5 -11q11 -104 3 -122zM147 154q-15 -30 -122 -116q-6 -6 -3 -9q2 -7 11 1q23 15 45.5 29.5t45.5 30.5q28 20 43.5 31.5t18.5 17.5t-16 77 q-18 71 -22 71q-5 0 -4 -11q12 -105 3 -122z" />
<glyph unicode="&#xbc;" horiz-adv-x="506" d="M290 -22q1 27 28 80q6 11 31 62q4 -1 14 -1h28q4 0 9 5.5t5 8.5t-2 1q-3 -1 -15 -0.5t-33 2.5q6 11 20.5 37t37.5 66q23 42 40.5 71t31.5 52v1q0 3 -5 3q-21 0 -27 -14q-36 -65 -65 -118.5t-51 -93.5h-8t-22 1q-13 0 -25 0.5t-24 0.5q-13 0 -22.5 -0.5t-17.5 -1.5 q6 8 25 30.5t52 57.5q35 38 60.5 63.5t43.5 39.5q3 3 3 7q0 8 -6 8q-2 0 -3 -1q-18 -17 -41.5 -40t-55.5 -60q-62 -69 -87 -105q-2 -5 -4.5 -6.5t-4.5 -2.5q-11 -9 -11 -10q-3 -5 -3 -10q0 -13 4 -13q1 0 2.5 2t5.5 9q5 8 10 10q9 2 25 2.5t42 -0.5h33q14 0 21 -1 q-43 -91 -45 -140q-2 -10 3 -10q3 0 3 8zM28 19q12 56 189 250q79 87 147 154.5t126 115.5q7 9 7 13q0 7 -6 7t-14 -7q-109 -91 -273 -276q-179 -202 -185 -255q0 -15 2 -19q2 0 7 17zM122 288q30 0 42 1t12 7q0 5 -8 3q-16 -2 -50 7q-17 2 -17 13q0 6 4 11q6 19 20.5 47.5 t35.5 65.5q20 36 34.5 58t21.5 30q2 6 2 11t1 6q7 5 13 9.5t9 7.5q2 2 2 8q0 7 -4 7q-1 0 -5 -3q-37 -28 -124 -72q-3 -1 -4 -2.5t-2 -3.5q-2 -2 -1 -3t3 -1t6 2q17 7 34 14.5t35 17.5l1 0.5t2 0.5q3 0 3 -4q0 -5 -3 -8q-34 -67 -59 -119.5t-41 -90.5q-21 -2 -34.5 -3 t-22.5 -3q-7 -1 -7 -12q0 -5 7 -5q21 3 81 3h13z" />
<glyph unicode="&#xbd;" horiz-adv-x="506" d="M28 19q12 56 189 250q79 87 147 154.5t126 115.5q7 9 7 13q0 7 -6 7t-14 -7q-109 -91 -273 -276q-179 -202 -185 -255q0 -15 2 -19q2 0 7 17zM376 24q8 0 8 6q0 7 -9 7q-108 0 -108 13q0 2 2.5 3t4.5 3q24 11 48.5 29t49.5 43q31 29 44.5 57.5t13.5 53.5q0 28 -11 47 q-12 21 -43 27q-35 4 -79 -25q-8 -4 -8 -17q0 -2 2 -2q17 13 31.5 17.5t29.5 4.5h18q9 -3 17 -9.5t15 -18.5q5 -9 7.5 -18.5t0.5 -20.5q-6 -48 -54 -99q-17 -17 -33.5 -30t-36.5 -25q-15 -9 -32 -15t-32 -10q-15 -5 -15 -20q0 -6 9 -5q61 6 117 6q14 0 24 -0.5t19 -1.5z M122 288q30 0 42 1t12 7q0 5 -8 3q-16 -2 -50 7q-17 2 -17 13q0 6 4 11q6 19 20.5 47.5t35.5 65.5q20 36 34.5 58t21.5 30q2 6 2 11t1 6q7 5 13 9.5t9 7.5q2 2 2 8q0 7 -4 7q-1 0 -5 -3q-37 -28 -124 -72q-3 -1 -4 -2.5t-2 -3.5q-2 -2 -1 -3t3 -1t6 2q17 7 34 14.5t35 17.5 l1 0.5t2 0.5q3 0 3 -4q0 -5 -3 -8q-34 -67 -59 -119.5t-41 -90.5q-21 -2 -34.5 -3t-22.5 -3q-7 -1 -7 -12q0 -5 7 -5q21 3 81 3h13z" />
<glyph unicode="&#xbe;" horiz-adv-x="506" d="M290 -22q1 27 28 80q6 11 31 62q4 -1 14 -1h28q4 0 9 5.5t5 8.5t-2 1q-3 -1 -15 -0.5t-33 2.5q6 11 20.5 37t37.5 66q23 42 40.5 71t31.5 52v1q0 3 -5 3q-21 0 -27 -14q-36 -65 -65 -118.5t-51 -93.5h-8t-22 1q-13 0 -25 0.5t-24 0.5q-13 0 -22.5 -0.5t-17.5 -1.5 q6 8 25 30.5t52 57.5q35 38 60.5 63.5t43.5 39.5q3 3 3 7q0 8 -6 8q-2 0 -3 -1q-18 -17 -41.5 -40t-55.5 -60q-62 -69 -87 -105q-2 -5 -4.5 -6.5t-4.5 -2.5q-11 -9 -11 -10q-3 -5 -3 -10q0 -13 4 -13q1 0 2.5 2t5.5 9q5 8 10 10q9 2 25 2.5t42 -0.5h33q14 0 21 -1 q-43 -91 -45 -140q-2 -10 3 -10q3 0 3 8zM238 397q4 16 4 34q0 31 -14.5 52t-36.5 24q-3 1 -3 3q0 5 2 6q61 33 83 80q7 14 7 28q0 38 -37 38q-20 0 -36.5 -6.5t-32.5 -18.5q-8 -4 -8 -16q0 -5 3 -3q17 12 33 17t30 5q20 0 20 -27q0 -8 -1 -14.5t-5 -13.5q-5 -13 -15.5 -25 t-24.5 -23q-32 -28 -58 -28q-3 0 -7.5 -3.5t-4.5 -8.5q0 -3 5 -3q41 3 60 -19q17 -17 17 -50q0 -13 -3 -28q-20 -50 -69 -82q-20 -14 -38.5 -21t-36.5 -7q-26 0 -26 20q0 13 -7 13q-5 0 -7.5 -7t-2.5 -13q0 -22 43 -21q41 2 87 29q30 18 49.5 40t30.5 49zM28 19 q12 56 189 250q79 87 147 154.5t126 115.5q7 9 7 13q0 7 -6 7t-14 -7q-109 -91 -273 -276q-179 -202 -185 -255q0 -15 2 -19q2 0 7 17z" />
<glyph unicode="&#xbf;" horiz-adv-x="400" d="M276 296q0 -2 2.5 -7.5t5 -12t4 -13.5t-0.5 -13q-4 -11 -15 -16q-18 -5 -50 -17t-79 -31t-78 -33t-49 -24q-88 -52 -88 -141q0 -30 11 -68q8 -25 21.5 -46.5t32.5 -40.5q44 -44 104 -44q18 0 34 4q20 5 40 18t37 36q5 7 5 13q0 5 -3 5q-2 0 -12 -10q-21 -32 -69 -32 t-88 30q-45 30 -60 81q-5 16 -7.5 30.5t-2.5 28.5q0 93 136 163q70 38 215 79q7 3 7 9q0 11 -18 34q-17 24 -28 24q-7 0 -7 -6zM299 395q-1 -3 -1.5 -10.5t1.5 -19.5q1 -11 2.5 -17t3.5 -8.5t4 -2.5h4q8 0 22 6q14 7 18.5 12.5t0.5 26.5q-2 20 -6 24t-11 4q-11 0 -23.5 -5.5 t-14.5 -9.5z" />
<glyph unicode="&#xc0;" horiz-adv-x="1113" d="M931 315q6 14 20 48t33 77t40 90t42 87q3 6 0.5 10.5t-7 8.5t-9.5 7t-5 6q-1 14 -6.5 23.5t-13 13.5t-15.5 2.5t-13 -9.5q-21 -30 -48 -69t-57.5 -81.5t-62.5 -85.5t-62 -82t-56.5 -70.5t-46.5 -51.5q-66 14 -144 24t-154 11t-143 -11.5t-110 -43.5q-33 -25 -48 -55.5 t-15 -61.5t13.5 -60t37.5 -51t58 -34.5t74 -10.5q51 2 101.5 21t97 47t87 60t72 61t51.5 50.5t26 26.5q13 -2 39 -7t54.5 -10t53.5 -9.5t36 -6.5q-3 -14 -10 -44.5t-12.5 -68.5t-5.5 -80t12 -78q4 -8 8 -6.5t1 13.5q-8 31 -5 73t10.5 81t16.5 69.5t13 38.5q7 -1 19 0t24.5 3 t22.5 6.5t13 11.5q4 10 1.5 26.5t-8 34t-12 33t-8.5 23.5zM121 208q54 33 125 43.5t144 7.5t140.5 -15.5t115.5 -24.5q-28 -34 -72.5 -78.5t-99 -84t-116.5 -66.5t-126 -26q-38 0 -67.5 13.5t-50 35.5t-31 49.5t-10.5 54.5t12 51t36 40zM687 234q10 10 31 35.5t48.5 60.5 t58.5 76t61 81t56.5 76.5t44.5 62.5q6 8 12 9t10 -3t5 -12.5t-3 -18.5q-19 -45 -40.5 -94.5t-42 -101t-39 -103.5t-32.5 -100q-11 1 -35 5t-51 9.5t-50.5 10.5t-33.5 7zM1104 743q-14 13 -30.5 29.5l-33.5 33.5l-32.5 32.5l-27.5 27.5q-6 5 -13 3t-12.5 -8t-6.5 -13t6 -12 q13 -10 31.5 -23t38.5 -27t39.5 -27.5t34.5 -24.5q4 -4 8 0t-2 9zM942 211q-8 -10 -26 -11.5t-29 -1.5q2 7 7 21t11 29.5t11.5 30.5t8.5 23q5 -11 10 -24.5t8 -26t3 -23.5t-4 -17z" />
<glyph unicode="&#xc1;" horiz-adv-x="1099" d="M904 324q6 15 19.5 50t31.5 79.5t39 92.5t42 88q3 6 0 11t-7.5 8.5l-9 7t-4.5 6.5q-1 13 -7 22.5t-13.5 14t-15.5 3t-12 -9.5q-20 -31 -46 -71t-55.5 -83.5t-60.5 -87.5t-60 -83.5t-55 -72.5t-45 -53q-64 15 -140 26t-150 12t-138.5 -12t-105.5 -46q-48 -39 -58.5 -88 t8 -92.5t61.5 -72t102 -26.5q49 2 98.5 21.5t95 48t85 61.5t70 62.5t50.5 51.5t25 28q13 -3 38.5 -8t53 -10t52 -10t35.5 -6q-3 -14 -10.5 -45t-12 -71t-4.5 -82q0 -43 12 -79q4 -9 7.5 -7.5t0.5 13.5q-8 32 -5.5 75t10 83.5t16.5 71.5t13 39q7 0 18.5 0.5t23.5 3t21.5 6.5 t12.5 11q5 10 2.5 27t-8 35t-11.5 33.5t-9 23.5zM119 215q51 34 119.5 45t139.5 7t136.5 -16.5t112.5 -24.5q-27 -35 -70 -80t-96.5 -85.5t-114 -68t-123.5 -27.5q-36 0 -64.5 14t-48 36.5t-29.5 50.5t-9.5 56t12 52.5t35.5 40.5zM668 241q9 10 29.5 36.5t47 62.5t56.5 78 t59.5 83t55 78t42.5 63q5 9 11 10t10 -3t4.5 -12.5t-3.5 -19.5q-18 -46 -38.5 -97t-40 -103.5t-37.5 -105t-31 -101.5q-10 0 -33.5 4t-50 9t-49.5 10t-32 8zM909 770q18 8 41 16.5t45.5 17t43 16t35.5 13.5q8 3 9.5 10t-1 14.5t-8 12t-11.5 1.5q-14 -7 -34 -18t-42.5 -23.5 t-44.5 -24.5t-39 -21q-7 -3 -4 -9.5t10 -4.5zM914 218q-7 -11 -24.5 -12.5t-28.5 -0.5q2 7 7 21.5t11 31t11.5 31.5t8.5 24q5 -12 9.5 -26.5t7 -27.5t2.5 -24t-4 -17z" />
<glyph unicode="&#xc2;" horiz-adv-x="1077" d="M917 345q6 15 19.5 52t32 83.5t39.5 97t42 92.5q3 6 0.5 11t-7 9t-9 7.5t-4.5 7.5q-1 14 -7 24t-14 14.5t-16 3.5t-12 -10q-20 -33 -46.5 -75t-56 -87.5t-61 -91.5t-61.5 -87.5t-56 -76t-46 -55.5q-43 10 -92 18.5t-100 14t-102 5.5q-50 0 -96 -5.5t-85 -19t-67 -36.5 q-33 -27 -48 -59.5t-15 -65.5q0 -32 13 -63t37 -54.5t57 -37t73 -11.5q50 2 99.5 22t95.5 49.5t86 64.5t71 66.5t51 54.5t26 30q13 -3 38.5 -8.5t53.5 -11.5t53 -11t36 -6q-3 -15 -10 -48t-12.5 -74t-5.5 -86t12 -83q4 -9 8 -7.5t1 13.5q-8 34 -5 79t10.5 87.5t16.5 75 t13 41.5q6 0 18 0.5t24 3t22 7t13 11.5q4 11 1.5 29t-8 37t-11.5 35zM120 230q53 36 122.5 47.5t141.5 7.5t138.5 -17.5t113.5 -26.5q-28 -36 -71.5 -83.5t-97.5 -89.5t-115 -71.5t-124 -29.5q-37 0 -66 15t-49 38.5t-30.5 53t-10 59t12 55.5t35.5 42zM678 260 q9 10 29.5 37.5t47.5 64.5t58 81t60.5 87t55.5 82t43 67q6 9 12 10t9.5 -3.5t4.5 -13t-4 -20.5q-18 -48 -38.5 -101t-40.5 -108.5t-38.5 -111t-31.5 -107.5q-11 1 -35 5.5t-50 10t-49.5 11.5t-32.5 9zM1008 845q6 1 29 -17q8 -8 17 -14.5t17 -14.5q4 -4 6 -3q2 2 3 2.5 t1 3.5l-0.5 1.5t-2.5 3.5q-32 37 -49 55t-19 19q-1 1 -39 -27q-23 -19 -37.5 -29t-20.5 -13q-2 -4 -2.5 -5.5t-0.5 -4.5q0 -7 7 0q28 16 51 27t40 16zM928 234q-7 -11 -25 -13t-28 -1q2 7 6.5 22t10.5 32.5t11.5 33t8.5 24.5q5 -12 10 -26.5t7.5 -28.5t2.5 -26q0 -11 -4 -17 z" />
<glyph unicode="&#xc3;" horiz-adv-x="1049" d="M897 337q5 14 18 50t31 81.5t38.5 95.5t40.5 92q3 6 1 10.5t-6.5 8.5t-9 7.5t-5.5 7.5q-1 13 -6.5 23t-13 14.5t-15.5 3t-13 -9.5q-19 -32 -45 -73.5t-55 -86t-60 -90t-60 -86t-54.5 -74t-44.5 -54.5q-63 15 -138 26t-148 11.5t-137.5 -13t-104.5 -47.5 q-32 -26 -47 -57.5t-15 -64.5q0 -32 12.5 -62t35.5 -53t55.5 -36.5t70.5 -11.5q49 2 98 21.5t93.5 49t84 63.5t69.5 64.5t49.5 53.5t24.5 29q12 -3 37.5 -8t53 -11t52.5 -11t36 -6q-3 -14 -10.5 -46t-12.5 -72.5t-5 -84.5t11 -82q5 -9 8.5 -7.5t0.5 12.5q-8 34 -5.5 78.5 t10 86t16.5 73.5t14 41q7 -1 18.5 0t23 3.5t21 7t12.5 11.5q4 10 1.5 27.5t-7.5 36t-11 34.5t-8 24zM118 223q51 36 118.5 47t137.5 7.5t135.5 -17t110.5 -26.5q-26 -35 -68.5 -81.5t-95 -88t-113 -70t-122.5 -27.5q-36 0 -64 14.5t-47.5 37.5t-29.5 51.5t-9.5 57t12 54 t35.5 41.5zM661 253q9 10 29 37t46.5 63.5t56.5 79.5t59 85t54 80t42 65q6 9 12 10.5t10 -2.5t4.5 -12.5t-3.5 -20.5q-18 -47 -38 -99t-39.5 -106.5t-37.5 -108.5t-31 -105q-10 1 -33.5 5t-50 9.5t-49 11t-31.5 8.5zM878 823q11 9 25.5 16t31.5 7q9 0 23 -6t28 -12.5 t28 -12.5t23 -6t17 4.5t15.5 11t14.5 14t12 12.5q7 11 4 14.5t-13 -5.5q-10 -11 -19 -14.5t-31 -3.5q-10 0 -24 6t-28.5 13t-27.5 13t-22 6q-8 0 -17 -5t-17 -12.5t-15.5 -15.5t-13.5 -14q-6 -10 -5.5 -15t11.5 5zM908 228q-8 -12 -25.5 -13.5t-27.5 0.5q2 7 6.5 21.5t10 31 t11 32t8.5 24.5q5 -13 9.5 -27t7.5 -27.5t3 -24.5t-3 -17z" />
<glyph unicode="&#xc4;" horiz-adv-x="1050" d="M878 340q6 15 19.5 51.5t32 82t39.5 95.5t42 92q3 7 0.5 11.5t-7 8.5t-9.5 7t-5 7q-1 14 -6.5 24t-13 14.5t-15.5 3t-13 -10.5q-20 -32 -46.5 -73.5t-56.5 -86.5t-61 -90.5t-60.5 -86.5t-55.5 -74.5t-45 -54.5q-65 15 -142 26t-151.5 11.5t-139.5 -12.5t-107 -47 q-49 -40 -59 -91t9 -96t62.5 -74.5t103.5 -27.5q50 2 99.5 22t95 49.5t85.5 64t71 65.5t51 53.5t25 28.5q13 -2 38.5 -7.5t53.5 -11t53 -10.5t36 -6q-3 -15 -10.5 -47.5t-12.5 -73.5t-4.5 -85t11.5 -82q4 -9 8 -7.5t0 13.5q-8 33 -5 77.5t10.5 86.5t16 74t12.5 41 q7 0 19 0.5t24 3.5t21.5 7.5t12.5 11.5q4 10 1.5 27.5t-8 36t-11.5 35t-8 24.5zM85 227q52 35 121.5 46t141 7.5t137.5 -16.5t113 -26q-27 -36 -70.5 -83t-97.5 -89t-115 -70.5t-124 -28.5q-37 0 -65.5 14.5t-48.5 38t-30 52.5t-9.5 58t12 55t35.5 42zM640 254q9 11 29.5 38 t47 64t57.5 80.5t60.5 86t55.5 81t43 66.5q5 9 11 10t10 -3.5t5 -13.5t-3 -20q-19 -47 -39.5 -99.5t-40.5 -107t-38.5 -109.5t-31.5 -106q-10 0 -33.5 4.5t-50 10t-50 11t-32.5 7.5zM889 230q-8 -11 -26 -12.5t-28 -0.5l7 21t10.5 32t11 33t8.5 25q11 -26 18 -55t-1 -43z M1044 814q0 4 -0.5 12.5t-1.5 18t-2.5 17.5t-4.5 10q-2 3 -8 1.5t-13.5 -4.5t-13.5 -7.5t-8 -7.5t-2 -11t1 -17.5t3 -18.5t4 -12q3 -3 11 -2t15.5 4.5t13.5 8t6 8.5zM944 816q0 3 -0.5 11.5t-1 18t-2 17.5t-3.5 10q-3 3 -9 2t-13 -4.5t-13.5 -8t-8.5 -7.5t-1.5 -11.5 t1.5 -18t3 -18t4 -11.5t9.5 -2t15 4.5t13.5 8.5t6 9z" />
<glyph unicode="&#xc5;" horiz-adv-x="1065" d="M920 343q6 15 20 51.5t32 83t39.5 97t42.5 92.5q4 6 1 11t-7.5 9t-9.5 7.5t-5 6.5q-1 14 -7 24.5t-13.5 15t-16 3t-13.5 -10.5q-20 -33 -46.5 -74.5t-56.5 -86.5t-61.5 -91t-61 -87.5t-55.5 -76t-45 -55.5q-65 16 -142 27t-152.5 11.5t-141.5 -13t-108 -47.5 q-49 -40 -59.5 -91.5t9 -96.5t63.5 -75t104 -28q50 2 100 22t95.5 50t86 64.5t71.5 65.5t51.5 54.5t25.5 29.5q13 -3 39 -8.5t54 -11.5t53 -11t36 -6q-3 -15 -10.5 -47.5t-12.5 -73.5t-5 -85q0 -45 11 -83q5 -9 8.5 -7.5t1.5 12.5q-8 34 -5.5 79t10 87.5t16.5 75t13 41.5 q7 0 19 0.5t24 3t21.5 7t12.5 11.5q4 11 1.5 28.5t-7.5 36.5t-11 35zM121 229q35 24 78 36.5t90.5 16.5t96 1t94 -9.5t86.5 -16t72 -17.5q-28 -36 -71.5 -83t-97.5 -89t-115.5 -71t-124.5 -29q-37 0 -66.5 14.5t-49.5 38t-30.5 53t-10 58.5t12.5 55t36 42zM680 258 q9 10 29.5 37.5t47.5 64.5t58 80.5t60.5 86.5t56 82t43.5 66q11 17 21 7t2 -34q-19 -48 -39.5 -101t-41 -107.5t-38.5 -109.5t-32 -107q-10 0 -34 4.5t-50.5 10t-50 11.5t-32.5 9zM1056 837q0 20 -12 34.5t-29 14.5t-29 -14.5t-12 -34.5q0 -18 12 -31t29 -13t29 13t12 31z M1015 803q-14 0 -23.5 10t-9.5 24q0 17 9.5 27.5t23.5 10.5q13 0 22.5 -10.5t9.5 -27.5q0 -14 -9.5 -24t-22.5 -10zM932 233q-8 -11 -26 -13t-27 -1q1 7 5.5 22t10 32t11 32.5t8.5 24.5q6 -12 11 -26.5t8 -28t3 -25.5q0 -11 -4 -17z" />
<glyph unicode="&#xc6;" horiz-adv-x="860" d="M1018 665q5 10 5 19q0 10 -4.5 19.5t-10.5 17.5t-12.5 13.5t-10.5 8.5q-9 5 -28.5 6.5t-43.5 1.5q-29 0 -60.5 -2.5t-53.5 -6.5l-6 4q-2 9 -9.5 12.5t-15.5 3.5q-2 0 -6 -1t-9 -2q-7 -4 -21 -26t-30 -49l-9 5q3 9 3 15q0 16 -9.5 28.5t-23 21.5t-29 13.5t-28.5 4.5 q-2 0 -4 -0.5t-4 -0.5q-30 -7 -76.5 -41.5t-103.5 -92.5t-122.5 -135.5t-132.5 -169.5l-2 -2q-13 -6 -30.5 -16.5t-27.5 -18.5q-10 -7 -13.5 -15.5t-3.5 -17.5q0 -18 7 -27v-6q-11 -17 -26.5 -42t-32 -53.5t-32 -58t-26.5 -55.5q-3 -9 -3 -17q0 -12 3.5 -22t8.5 -10 q6 0 13 20q13 34 32 72.5t41 78t46.5 78.5t48.5 74l2 1q35 20 84 38t100.5 32t100.5 22.5t85 10.5l5 -7q-13 -32 -28.5 -72.5t-29 -82t-23 -79.5t-9.5 -63v-8q1 -16 3.5 -34.5t8.5 -34t16 -26.5t24 -11q8 -1 15 -1h15q34 0 73 3.5t74.5 8.5t63.5 12t40 15q11 7 14.5 12 t3.5 8q0 2 -3 2q-5 0 -11 -3h-1q-10 -5 -29 -10t-44 -8.5t-53 -5.5t-55 -2q-32 0 -60.5 3t-48.5 10q-20 5 -25.5 10t-5.5 20v9t1 12q0 2 0.5 3t0.5 3v1q3 30 14 69t27 81t33.5 84.5t34.5 78.5l4 3q25 6 61.5 10t71.5 4q20 0 37 -1.5t29 -5.5h1q3 -1 6 -1q7 0 7 3q0 5 -15 8 q-17 4 -46 5t-59 1h-39t-35 -1l-5 7q14 30 31 64.5t36.5 70t41.5 69.5t45 61l2 2q30 13 75.5 21.5t87.5 8.5q41 0 67 -9q26 -11 26 -32q0 -11 -4 -20t-4 -13q5 1 17 16v-1zM672 705q-8 -45 -28 -91.5t-46 -98.5q-11 -23 -23 -48t-23 -51l-4 -3q-5 -1 -11 -1q-5 0 -10 -1 q-30 -3 -68 -7.5t-79 -11.5t-83 -18t-79 -26l-6 8q43 60 90 120t94.5 111.5t94 91t90.5 59.5q10 5 23.5 9t27.5 4q17 0 29 -7.5t12 -28.5q0 -2 -0.5 -4.5t-0.5 -4.5v-1z" />
<glyph unicode="&#xc7;" horiz-adv-x="922" d="M323 -4q76 -2 154.5 15.5t162.5 52.5q155 65 249 159q6 7 6 11q0 5 -4 5q-5 0 -11 -7q-47 -43 -107 -78.5t-135 -66.5q-81 -32 -159 -49.5t-155 -19.5q-132 -3 -205 50q-64 46 -64 120q0 26 8 49q47 153 255 309q196 147 366 179q14 2 26.5 3t24.5 1q81 0 99 -40 q-22 -23 -43 -52t-44 -64q-56 -91 -56 -146q0 -4 15 -7q15 -2 18 0q56 33 98 82q35 40 48 74.5t13 73.5q0 40 -14 57q13 14 13 19q0 6 -4 7q-7 2 -8 -3l-13 -13q-33 30 -109 30q-26 0 -54 -3q-105 -13 -266 -99q-84 -46 -153.5 -97t-126.5 -108q-128 -131 -128 -240 q0 -92 96 -149q22 -14 46.5 -24t50.5 -18q-13 -8 -25 -17t-20 -17t7 -14q30 -7 42 -21t1 -34q-5 -8 -16.5 -16.5t-26 -16.5t-30.5 -13.5t-31 -6.5q-11 0 -10 -6.5t14 -6.5q19 2 39.5 8.5t39 15.5t33 19t20.5 19q9 15 7 27t-9.5 21t-18.5 14t-18 7q-7 3 -6.5 6.5t3.5 7.5 q5 5 10 10.5t11 9.5q43 -7 94 -9zM716 447q13 54 49 119q18 35 36.5 61t37.5 46q10 -17 10 -45q0 -32 -13 -62q-35 -81 -109 -128q-4 -3 -9 0q-3 2 -2 9z" />
<glyph unicode="&#xc8;" horiz-adv-x="592" d="M638 563q9 12 10 28.5t-3.5 32.5t-13 28t-19.5 17q-46 19 -106 25.5t-122 11.5q-1 9 -5.5 19t-11 16.5t-14.5 9t-16 -3.5q-23 -17 -42 -49q-38 -2 -85 -5.5t-95 -8.5t-94.5 -13t-82.5 -19q-8 -1 -12.5 -8t-5 -14.5t3.5 -13t13 -3.5q18 4 43 6t50 1.5t47 -2t34 -2.5 q8 -2 9 4.5t-4 8.5q-4 2 -5 5t-6 5q-10 2 -8 7.5t9 7.5q37 8 80.5 11.5t89.5 4.5q-22 -25 -47 -60.5t-49.5 -74.5t-47 -79.5t-40.5 -74.5q-13 -4 -28.5 -7t-27.5 -7q-10 -3 -13.5 -8.5t-2 -11.5t6.5 -11.5t13 -8.5q8 -5 14.5 -7.5t14.5 -2.5q-17 -45 -27.5 -95t-8.5 -99 q3 -39 17.5 -69t37 -50t50.5 -30t56 -9q50 0 99.5 15.5t94 38t82 48.5t63.5 49q7 5 5 11.5t-10 1.5q-27 -17 -64.5 -38t-82 -39.5t-93.5 -32t-98 -14.5q-27 0 -50 6t-39.5 20t-26.5 38t-10 60q-1 55 15 109t39 102q24 4 61 10t80 11.5t89.5 9t90 4t81 -3t62.5 -13.5 q12 -5 16.5 -1t2.5 10.5t-9 13t-16 8.5q-42 10 -98 12.5t-116.5 0t-120 -7.5t-106.5 -11q14 26 38 65.5t52.5 81t58 80t53.5 63.5q32 3 67 3t70.5 -3t68.5 -9t60 -15q11 -6 17 -20.5t-2 -31.5q-20 -38 -45.5 -58t-56.5 -36q-7 -5 -6.5 -12.5t11.5 -3.5q38 13 72 34.5 t45 41.5zM381 846q-14 13 -31 29.5t-34 33.5l-33 33l-28 28q-6 6 -13 4.5t-12 -7.5t-6 -13.5t5 -12.5q13 -11 32 -24.5t39 -27.5t39.5 -28t34.5 -25q5 -3 8.5 0.5t-1.5 9.5z" />
<glyph unicode="&#xc9;" horiz-adv-x="597" d="M641 539q9 12 10 28t-3 31t-13 27t-20 16q-46 18 -105 25t-122 12q-1 9 -5.5 18.5t-11 15.5t-14.5 8t-16 -4q-24 -18 -42 -46q-38 -3 -84.5 -6t-94.5 -8t-94 -12.5t-82 -17.5q-8 -2 -12.5 -8.5t-5 -14t3.5 -12.5t13 -4q18 4 43 6t49 2q25 0 47 -1.5t34 -2.5q7 -3 8.5 4 t-4.5 10q-3 1 -4 3.5t-7 4.5q-8 2 -6.5 7.5t7.5 7.5q37 7 80.5 10t89.5 4q-22 -24 -47 -57.5t-49 -71.5t-46.5 -77t-39.5 -72q-14 -2 -29.5 -6t-26.5 -6q-10 -3 -13.5 -8.5t-2.5 -11.5t6 -11t13 -8q8 -5 15 -7t15 -2q-17 -44 -28 -92t-9 -95q3 -38 17.5 -67t37 -48t50 -28.5 t55.5 -8.5q50 0 99.5 15t94 36.5t82 47t63.5 46.5q7 5 4.5 11t-10.5 1q-26 -16 -63.5 -36t-81.5 -38t-93 -30.5t-98 -13.5q-27 0 -50 5.5t-40 19t-26.5 36.5t-9.5 57q-1 54 14.5 106t38.5 96q24 5 61 10.5t80 11t89.5 9t90 4t80.5 -3t62 -12.5q12 -4 16.5 -0.5t2.5 9.5 t-8.5 12.5t-15.5 8.5q-41 9 -97.5 11t-117 0t-119.5 -7t-106 -11q13 26 37 64t52.5 77.5t58 77t53.5 61.5q32 3 67.5 2.5t70 -3.5t67.5 -9t60 -15q11 -5 17 -18.5t-2 -30.5q-20 -35 -45.5 -55t-56.5 -34q-7 -6 -6 -13t12 -2q18 6 36.5 14.5t34.5 18t28 19.5t17 19zM257 778 q19 7 43 15.5t47.5 16.5t45 15t37.5 12q8 3 9.5 10t-1 13.5t-8 11t-12.5 1.5q-14 -7 -35 -18t-44 -23t-46 -23.5t-41 -19.5q-7 -4 -4 -9.5t9 -1.5z" />
<glyph unicode="&#xca;" horiz-adv-x="601" d="M641 543q8 12 9.5 28t-3 31t-13 27t-20.5 17q-45 18 -104.5 24t-120.5 11q-1 9 -5.5 18.5t-11.5 16.5t-15 9t-16 -4q-22 -18 -41 -47q-38 -2 -84 -5.5t-94 -8.5t-93.5 -12.5t-81.5 -18.5q-8 -1 -12.5 -8t-5 -14t3.5 -12t13 -3q18 4 42.5 5.5t48.5 1.5q25 0 47 -1.5 t35 -2.5q8 -2 9 4t-5 8q-3 2 -4 5t-8 5q-9 2 -7.5 7t8.5 7q38 8 80.5 11.5t89.5 4.5q-23 -24 -47.5 -58.5t-49 -72.5t-46.5 -77t-40 -73q-14 -2 -29 -5t-26 -7q-10 -3 -13.5 -8.5t-2 -11.5t6.5 -11t12 -8q16 -9 30 -9q-17 -44 -28 -92.5t-8 -94.5q2 -39 17 -68t37.5 -48.5 t50 -29t54.5 -8.5q49 0 98 15t93.5 36.5t81.5 47t64 46.5q7 7 4.5 12.5t-10.5 0.5q-27 -16 -64 -36.5t-81 -38.5t-92 -30.5t-97 -13.5q-27 0 -50 5.5t-39.5 19.5t-26 36.5t-10.5 57.5q-1 54 15 106.5t39 97.5q24 4 60 9.5t79 11t89 9t89.5 4t80.5 -3t62 -13.5q12 -4 16 0 t2 10t-8 13t-15 9q-42 9 -98 11t-116 0t-118.5 -7t-104.5 -11q13 25 36.5 63t51.5 78t57 77.5t53 62.5q32 3 67 3q36 0 70.5 -3t67 -9t59.5 -15q11 -5 17.5 -19t-2.5 -31q-20 -36 -45 -56t-55 -35q-6 -5 -5.5 -12t10.5 -2q18 6 36.5 14t34.5 17.5t28 20t17 20.5zM337 850 q5 1 29 -16q9 -6 18.5 -13t17.5 -14q3 -3 5 -2l3 1.5t1 3.5q0 2 -3 5q-64 66 -69 68q-2 2 -40 -25q-23 -17 -37.5 -26.5t-20.5 -13.5q-4 -4 -4 -7q0 -4 2 -4q3 0 6 3q28 14 50.5 24.5t41.5 15.5z" />
<glyph unicode="&#xcb;" horiz-adv-x="598" d="M641 539q9 12 10 27.5t-3 30.5t-12.5 27t-20.5 16q-46 18 -105.5 24.5t-121.5 11.5q-1 9 -5.5 19t-11 16.5t-14.5 8t-16 -4.5q-11 -8 -21.5 -20t-20.5 -26q-38 -3 -84.5 -6t-94.5 -8t-93.5 -12.5t-81.5 -17.5q-8 -2 -12.5 -8.5t-5 -14t3.5 -13t13 -3.5q18 4 42.5 6 t49.5 2t47 -1t34 -2q8 -4 9 2.5t-5 9.5q-3 2 -4 4.5t-7 4.5q-9 2 -7.5 7.5t8.5 7.5q38 7 81 10t88 4q-22 -24 -46.5 -58t-48.5 -71.5t-46.5 -76t-40.5 -72.5q-14 -2 -29 -5.5t-27 -6.5q-20 -6 -16 -19.5t19 -19.5q9 -5 16 -7.5t15 -2.5q-17 -43 -28.5 -90.5t-9.5 -93.5 q3 -39 17.5 -68t37 -48t50.5 -28.5t56 -8.5q50 0 99 14.5t93 36.5t81.5 47t64.5 46q7 7 4.5 12.5t-10.5 0.5q-27 -16 -64 -36t-81 -38t-92.5 -31t-97.5 -14q-27 0 -50 5.5t-40 19.5t-26.5 36.5t-9.5 57.5q-1 54 14.5 105.5t38.5 96.5q24 4 61 10t80 11t89.5 9t89.5 4.5 t80.5 -3.5t62.5 -13q12 -4 16 -0.5t2 9.5t-8 13t-15 9q-42 9 -98.5 11t-116.5 0t-119 -7.5t-105 -11.5q13 25 36.5 63t51.5 78t57.5 77.5t53.5 62.5q32 2 67 2q36 0 70.5 -3t67.5 -9t60 -15q11 -5 17 -18.5t-2 -30.5q-20 -36 -45 -56t-56 -34q-6 -6 -5.5 -13t10.5 -3 q38 13 71.5 33t44.5 40zM432 820q0 3 -0.5 11t-1.5 16.5t-2.5 16t-3.5 9.5q-2 3 -8.5 2t-14 -4.5t-14 -7.5t-7.5 -7q-2 -3 -2 -11q0 -7 1 -15.5t2.5 -16.5t3.5 -11q3 -3 11 -2t16 4.5t14 8t6 7.5zM330 821q0 3 -0.5 11t-1.5 17t-2.5 16.5t-3.5 9.5q-3 3 -9 1.5t-13 -4.5 t-13.5 -7.5t-8.5 -7.5t-1.5 -10.5t1.5 -16t3 -16.5t4 -11t9.5 -2t15.5 4.5t14 8t6 7.5z" />
<glyph unicode="&#xcc;" horiz-adv-x="595" d="M-56 111q-16 -23 -24.5 -55.5t-8.5 -67.5t7 -69.5t23 -61.5t39.5 -42.5t55.5 -13.5q44 3 81 26.5t66.5 54t51 62t34.5 50.5q26 38 54 96t56 124.5t54 136t47 130t35.5 106.5t19.5 66q13 14 22 30t17 32q3 7 5 16t1 16.5t-4 11t-10 0.5q-8 -4 -15 -15t-13.5 -25.5 t-12.5 -30.5t-12 -31q-24 -21 -56 -46t-64 -53t-61.5 -59.5t-48.5 -65.5q-17 -26 -25.5 -63t-12.5 -66q-1 -15 4.5 -17.5t7.5 17.5q3 30 17 60.5t27 53.5q21 34 47.5 66t54.5 59.5t55 50.5t47 38q-13 -49 -33 -107t-44 -119t-49.5 -121t-49.5 -112.5t-44.5 -94t-33.5 -64.5 q-12 -20 -34.5 -53.5t-52 -65.5t-62.5 -56t-66 -26q-43 -2 -67 27.5t-32.5 73.5t-3 95.5t20.5 95.5q5 14 2 16.5t-12 -10.5zM594 855q-14 13 -30.5 29.5l-33.5 33.5l-32.5 32.5l-27.5 27.5q-6 5 -13.5 3t-12.5 -8t-6 -13t5 -12q14 -10 32.5 -23t38.5 -27t39 -27.5t34 -24.5 q5 -3 9 0.5t-2 8.5z" />
<glyph unicode="&#xcd;" horiz-adv-x="634" d="M-56 111q-16 -23 -24.5 -55.5t-8.5 -67.5t7 -69.5t23 -61.5t39.5 -42.5t55.5 -13.5q44 3 81 26.5t66.5 54t51 62t34.5 50.5q26 38 54 96t56 124.5t54 136t47 130t35.5 106.5t19.5 66q13 14 22 30t17 32q3 7 5 16t1 16.5t-4 11t-10 0.5q-8 -4 -15 -15t-13.5 -25.5 t-12.5 -30.5t-12 -31q-24 -21 -56 -46t-64 -53t-61.5 -59.5t-48.5 -65.5q-17 -26 -25.5 -63t-12.5 -66q-1 -15 4.5 -17.5t7.5 17.5q3 30 17 60.5t27 53.5q21 34 47.5 66t54.5 59.5t55 50.5t47 38q-13 -49 -33 -107t-44 -119t-49.5 -121t-49.5 -112.5t-44.5 -94t-33.5 -64.5 q-12 -20 -34.5 -53.5t-52 -65.5t-62.5 -56t-66 -26q-43 -2 -67 27.5t-32.5 73.5t-3 95.5t20.5 95.5q5 14 2 16.5t-12 -10.5zM501 834q18 8 41 16.5t45.5 17t43 16t34.5 13.5q8 3 10 10t-0.5 14.5t-8.5 12t-12 1.5q-14 -7 -34 -18.5t-42 -23.5l-44 -24t-39 -21q-7 -3 -4 -9.5 t10 -4.5z" />
<glyph unicode="&#xce;" horiz-adv-x="614" d="M-56 111q-16 -23 -24.5 -55.5t-8.5 -67.5t7 -69.5t23 -61.5t39.5 -42.5t55.5 -13.5q44 3 81 26.5t66.5 54t51 62t34.5 50.5q26 38 54 96t56 124.5t54 136t47 130t35.5 106.5t19.5 66q13 14 22 30t17 32q3 7 5 16t1 16.5t-4 11t-10 0.5q-8 -4 -15 -15t-13.5 -25.5 t-12.5 -30.5t-12 -31q-24 -21 -56 -46t-64 -53t-61.5 -59.5t-48.5 -65.5q-17 -26 -25.5 -63t-12.5 -66q-1 -15 4.5 -17.5t7.5 17.5q3 30 17 60.5t27 53.5q21 34 47.5 66t54.5 59.5t55 50.5t47 38q-13 -49 -33 -107t-44 -119t-49.5 -121t-49.5 -112.5t-44.5 -94t-33.5 -64.5 q-12 -20 -34.5 -53.5t-52 -65.5t-62.5 -56t-66 -26q-43 -2 -67 27.5t-32.5 73.5t-3 95.5t20.5 95.5q5 14 2 16.5t-12 -10.5zM566 871q8 2 30 -16q8 -8 17 -15t17 -15q3 -3 6 -2l3 1.5t1 3.5l-0.5 2t-2.5 4q-32 36 -49 54t-19 20t-39 -28q-23 -18 -37.5 -28t-20.5 -14 q-2 -3 -2.5 -4.5t-0.5 -5.5q0 -7 7 0q28 16 50.5 27t39.5 16z" />
<glyph unicode="&#xcf;" horiz-adv-x="595" d="M-56 111q-16 -23 -24.5 -55.5t-8.5 -67.5t7 -69.5t23 -61.5t39.5 -42.5t55.5 -13.5q44 3 81 26.5t66.5 54t51 62t34.5 50.5q26 38 54 96t56 124.5t54 136t47 130t35.5 106.5t19.5 66q13 14 22 30t17 32q3 7 5 16t1 16.5t-4 11t-10 0.5q-8 -4 -15 -15t-13.5 -25.5 t-12.5 -30.5t-12 -31q-24 -21 -56 -46t-64 -53t-61.5 -59.5t-48.5 -65.5q-17 -26 -25.5 -63t-12.5 -66q-1 -15 4.5 -17.5t7.5 17.5q3 30 17 60.5t27 53.5q21 34 47.5 66t54.5 59.5t55 50.5t47 38q-13 -49 -33 -107t-44 -119t-49.5 -121t-49.5 -112.5t-44.5 -94t-33.5 -64.5 q-12 -20 -34.5 -53.5t-52 -65.5t-62.5 -56t-66 -26q-43 -2 -67 27.5t-32.5 73.5t-3 95.5t20.5 95.5q5 14 2 16.5t-12 -10.5zM637 851q0 4 -0.5 12.5t-1.5 18t-2.5 17.5t-4.5 11q-2 3 -8 1.5t-13.5 -5t-13.5 -8t-8 -7.5t-2 -11t1 -17.5t3 -18t4 -11.5q3 -3 10.5 -2t15.5 4.5 t14 8t6 7.5zM537 854q0 3 -0.5 11.5t-1 17.5t-2 17t-3.5 11q-3 3 -9.5 2t-13.5 -4.5t-13 -8.5t-8 -8t-1.5 -11t1.5 -17.5t3 -18t4 -11.5t9.5 -2t15 4.5t13.5 8.5t6 9z" />
<glyph unicode="&#xd0;" horiz-adv-x="547" d="M76 415v-1h-1v1q-16 5 -30 8.5t-22 1.5t-16.5 -9t-16.5 -16.5t-15 -20t-12 -17.5q-7 -12 -5.5 -17.5t12.5 8.5q11 12 27 22.5t33 13.5q8 2 18.5 0t24.5 -6q-6 -85 -8.5 -153t-2.5 -111q2 -5 -1.5 -3t-7.5 2q-8 4 -11.5 5t-4.5 1.5t-1.5 1.5t-3.5 5q-9 7 -18 7 q-8 0 -12.5 -5t-4 -13t10.5 -15q11 -11 20 -17.5t26 -16.5q1 -2 1.5 -4.5t5.5 -7.5q1 -6 0.5 -8t-1 -3t-0.5 -3t3 -8q2 -6 16.5 -8t22.5 6q12 6 16 2q26 -9 55 -18.5t59.5 -16t62.5 -8t65 5.5q52 9 85.5 35t52.5 60t25.5 72.5t4.5 73.5q-8 93 -38 177t-71 152.5t-88 119 t-89 77.5q-24 11 -37.5 14t-25.5 1q-9 2 -11.5 2.5t0.5 8.5q5 9 5 15t-3.5 7.5t-9 -1t-10.5 -9.5q-28 -40 -41 -89q-11 -51 -19 -132t-15 -169h1zM154 365q9 2 17 9t15 16t13 18t10 16q8 12 3.5 16.5t-12.5 -9.5q-10 -13 -19.5 -19.5t-33.5 -8.5q-8 -3 -18 -1.5t-21 4.5 q5 85 11.5 161.5t25.5 142.5q14 23 33.5 33.5t49.5 -0.5q22 -10 51.5 -37t59.5 -65.5t58 -87t49 -102t31.5 -109.5t5.5 -110q-3 -26 -9 -54.5t-19 -54.5t-36.5 -47t-60.5 -32q-27 -8 -61.5 -7t-68 7.5t-63 17.5t-47.5 22q-5 2 -6.5 3t-1.5 5q-3 46 -5 120t1 161z" />
<glyph unicode="&#xd1;" horiz-adv-x="740" d="M45 21q21 44 61 100.5t91 116.5t109.5 120t116 111t110 89t92.5 55q34 14 47 -5t-10 -67q-18 -41 -54.5 -110t-81 -153t-92 -174.5t-88 -173.5t-68.5 -152t-33 -109q-2 -16 2.5 -27t12 -17.5t17.5 -8t20 0.5q16 3 34 12t35.5 20.5t33 24t26.5 23.5q13 12 16.5 18t1 7 t-9.5 -3.5t-16 -13.5q-7 -7 -18 -15t-22.5 -14.5t-22 -12t-16.5 -8.5q-11 -4 -14.5 -6.5t-7.5 -3t-11.5 1t-25.5 5.5q-14 3 -5.5 39t33.5 93t61.5 131t78.5 154t85 160t80.5 149.5t65.5 123.5t39 82q5 12 4.5 26.5t-8.5 25.5t-23 16t-39 -2q-31 -9 -70.5 -33.5t-83 -58.5 t-89 -75t-88 -83.5t-80 -83.5t-65.5 -75q-9 -11 -14.5 -13t-8 2t-1.5 11.5t6 16.5q21 37 49.5 88t56 104.5t50.5 103.5t35 84q10 30 11.5 51.5t-9 32t-34.5 11t-64 -11.5q-26 -8 -64 -28.5t-74 -49t-64.5 -63t-35.5 -70.5q-5 -29 0.5 -46.5t9.5 -27.5q5 -11 10 -10.5t6 12.5 q1 13 -0.5 30t5.5 36q6 16 24 45t46 59.5t63.5 57t77.5 37.5q31 8 46.5 -11.5t4.5 -61.5q-7 -28 -26 -71t-45.5 -95t-58 -110t-63.5 -115t-62.5 -110.5t-54.5 -97.5q-8 -15 -3 -21t15 -6t21 5t14 12zM428 826q11 9 26 16t32 7q10 0 25 -6t30 -12.5t29 -12.5t24 -6 q9 0 17.5 4.5t16 11.5t14 14t11.5 13q8 11 5 14.5t-13 -5.5q-11 -12 -19.5 -15.5t-31.5 -3.5q-11 0 -25.5 6t-29.5 12.5t-29 12.5t-24 6q-17 0 -35 -16.5t-29 -29.5q-7 -10 -6 -15t12 5z" />
<glyph unicode="&#xd2;" horiz-adv-x="872" d="M26 319q-5 -23 -8.5 -44.5t-3.5 -42.5q0 -106 82 -173q71 -58 173 -62q111 -6 235 51q67 31 123 71.5t101 92.5q105 121 127 267q1 5 1.5 11.5t0.5 13.5q0 88 -58 172q-70 101 -186 119q-38 6 -75 6q-99 0 -189 -36q-97 -41 -155 -109q-52 -61 -52 -119q0 -14 3 -29 q-92 -92 -119 -189zM649 712q-14 2 -28 3.5t-29 1.5q-112 0 -246 -64q-59 -28 -105 -59.5t-82 -66.5q-2 10 -2 20q0 49 49 101q55 58 144 93q94 39 191 39q15 0 29.5 -1t28.5 -3q61 -10 107 -33.5t78 -64.5q56 -71 56 -168q0 -121 -95 -238q-87 -108 -224 -180 q-134 -70 -252 -64q-112 5 -174.5 59.5t-62.5 147.5q0 20 2.5 40.5t8.5 42.5q12 40 44 96q17 27 32 46t29 32q11 -33 47 -60q19 -14 38.5 -21.5t42.5 -8.5q15 -3 15 7q0 7 -11 7q-39 0 -78 28q-36 29 -40 62q39 56 165 121q145 77 265 77q29 0 56 -6q11 -3 11 7q0 6 -10 7z M521 899q-13 12 -29.5 27.5t-33.5 31.5t-33 30.5t-27 25.5q-6 5 -13 3t-12 -7t-6 -12t5 -11q13 -10 31.5 -22.5t38 -26t39 -26t34.5 -22.5q4 -3 8 0.5t-2 8.5z" />
<glyph unicode="&#xd3;" horiz-adv-x="872" d="M26 319q-5 -23 -8.5 -44.5t-3.5 -42.5q0 -106 82 -173q71 -58 173 -62q111 -6 235 51q67 31 123 71.5t101 92.5q105 121 127 267q1 5 1.5 11.5t0.5 13.5q0 88 -58 172q-70 101 -186 119q-38 6 -75 6q-99 0 -189 -36q-97 -41 -155 -109q-52 -61 -52 -119q0 -14 3 -29 q-92 -92 -119 -189zM649 712q-14 2 -28 3.5t-29 1.5q-112 0 -246 -64q-59 -28 -105 -59.5t-82 -66.5q-2 10 -2 20q0 49 49 101q55 58 144 93q94 39 191 39q15 0 29.5 -1t28.5 -3q61 -10 107 -33.5t78 -64.5q56 -71 56 -168q0 -121 -95 -238q-87 -108 -224 -180 q-134 -70 -252 -64q-112 5 -174.5 59.5t-62.5 147.5q0 20 2.5 40.5t8.5 42.5q12 40 44 96q17 27 32 46t29 32q11 -33 47 -60q19 -14 38.5 -21.5t42.5 -8.5q15 -3 15 7q0 7 -11 7q-39 0 -78 28q-36 29 -40 62q39 56 165 121q145 77 265 77q29 0 56 -6q11 -3 11 7q0 6 -10 7z M363 903q19 7 42 15t46.5 15.5t44.5 14.5l36 12q8 3 9.5 9.5t-1 13.5t-8 11.5t-12.5 1.5q-14 -7 -34.5 -17.5t-43 -22t-44.5 -22.5t-40 -19q-7 -3 -4.5 -8.5t9.5 -3.5z" />
<glyph unicode="&#xd4;" horiz-adv-x="872" d="M26 319q-5 -23 -8.5 -44.5t-3.5 -42.5q0 -106 82 -173q71 -58 173 -62q111 -6 235 51q67 31 123 71.5t101 92.5q105 121 127 267q1 5 1.5 11.5t0.5 13.5q0 88 -58 172q-70 101 -186 119q-38 6 -75 6q-99 0 -189 -36q-97 -41 -155 -109q-52 -61 -52 -119q0 -14 3 -29 q-92 -92 -119 -189zM649 712q-14 2 -28 3.5t-29 1.5q-112 0 -246 -64q-59 -28 -105 -59.5t-82 -66.5q-2 10 -2 20q0 49 49 101q55 58 144 93q94 39 191 39q15 0 29.5 -1t28.5 -3q61 -10 107 -33.5t78 -64.5q56 -71 56 -168q0 -121 -95 -238q-87 -108 -224 -180 q-134 -70 -252 -64q-112 5 -174.5 59.5t-62.5 147.5q0 20 2.5 40.5t8.5 42.5q12 40 44 96q17 27 32 46t29 32q11 -33 47 -60q19 -14 38.5 -21.5t42.5 -8.5q15 -3 15 7q0 7 -11 7q-39 0 -78 28q-36 29 -40 62q39 56 165 121q145 77 265 77q29 0 56 -6q11 -3 11 7q0 6 -10 7z M482 952q5 1 30 -16q8 -6 17 -12t17 -13q3 -3 5 -2q4 2 4 4q0 1 -3 6q-63 61 -68 64q-1 2 -40 -24q-23 -16 -37.5 -25t-20.5 -12q-3 -5 -3 -8q0 -6 8 -1q53 28 91 39z" />
<glyph unicode="&#xd5;" horiz-adv-x="872" d="M26 319q-5 -23 -8.5 -44.5t-3.5 -42.5q0 -106 82 -173q71 -58 173 -62q111 -6 235 51q67 31 123 71.5t101 92.5q105 121 127 267q1 5 1.5 11.5t0.5 13.5q0 88 -58 172q-70 101 -186 119q-38 6 -75 6q-99 0 -189 -36q-97 -41 -155 -109q-52 -61 -52 -119q0 -14 3 -29 q-92 -92 -119 -189zM649 712q-14 2 -28 3.5t-29 1.5q-112 0 -246 -64q-59 -28 -105 -59.5t-82 -66.5q-2 10 -2 20q0 49 49 101q55 58 144 93q94 39 191 39q15 0 29.5 -1t28.5 -3q61 -10 107 -33.5t78 -64.5q56 -71 56 -168q0 -121 -95 -238q-87 -108 -224 -180 q-134 -70 -252 -64q-112 5 -174.5 59.5t-62.5 147.5q0 20 2.5 40.5t8.5 42.5q12 40 44 96q17 27 32 46t29 32q11 -33 47 -60q19 -14 38.5 -21.5t42.5 -8.5q15 -3 15 7q0 7 -11 7q-39 0 -78 28q-36 29 -40 62q39 56 165 121q145 77 265 77q29 0 56 -6q11 -3 11 7q0 6 -10 7z M331 908q11 8 26 14t32 6q10 0 24.5 -5.5t29.5 -11.5t29 -11.5t24 -5.5q17 0 33 14.5t26 24.5q8 10 5 13t-13 -5q-11 -11 -19.5 -14t-31.5 -3q-10 0 -24.5 5.5t-29.5 11.5t-29 11.5t-24 5.5q-8 0 -17 -4.5t-17.5 -11t-16 -13.5t-12.5 -13q-8 -9 -7 -13.5t12 5.5z" />
<glyph unicode="&#xd6;" horiz-adv-x="872" d="M26 319q-5 -23 -8.5 -44.5t-3.5 -42.5q0 -106 82 -173q71 -58 173 -62q111 -6 235 51q67 31 123 71.5t101 92.5q105 121 127 267q1 5 1.5 11.5t0.5 13.5q0 88 -58 172q-70 101 -186 119q-38 6 -75 6q-99 0 -189 -36q-97 -41 -155 -109q-52 -61 -52 -119q0 -14 3 -29 q-92 -92 -119 -189zM649 712q-14 2 -28 3.5t-29 1.5q-112 0 -246 -64q-59 -28 -105 -59.5t-82 -66.5q-2 10 -2 20q0 49 49 101q55 58 144 93q94 39 191 39q15 0 29.5 -1t28.5 -3q61 -10 107 -33.5t78 -64.5q56 -71 56 -168q0 -121 -95 -238q-87 -108 -224 -180 q-134 -70 -252 -64q-112 5 -174.5 59.5t-62.5 147.5q0 20 2.5 40.5t8.5 42.5q12 40 44 96q17 27 32 46t29 32q11 -33 47 -60q19 -14 38.5 -21.5t42.5 -8.5q15 -3 15 7q0 7 -11 7q-39 0 -78 28q-36 29 -40 62q39 56 165 121q145 77 265 77q29 0 56 -6q11 -3 11 7q0 6 -10 7z M539 905q0 3 -0.5 11t-1.5 16.5t-2.5 15.5t-4.5 9q-2 3 -8 2t-13.5 -4t-13.5 -7t-8 -7t-2 -10t1 -15.5t3 -16t4 -10.5q3 -3 11 -2t15.5 4t13.5 7t6 7zM438 906q0 3 -0.5 11t-1 16.5t-2 15.5t-3.5 9q-3 3 -9 2t-13 -4t-13.5 -7t-8.5 -7t-1.5 -10t1.5 -15.5t3 -16t4 -10.5 t9.5 -2t15 4t13.5 7t6 7z" />
<glyph unicode="&#xd7;" horiz-adv-x="612" d="M602 147q5 9 -0.5 11.5t-9.5 -4.5q-11 -21 -32 -32.5t-47 -12t-56 12t-60 40.5q-20 19 -39.5 48.5t-36.5 64.5t-29.5 72.5t-17.5 72.5q24 18 51 37t53 36t49 32t39 24q5 2 6.5 7t0 9.5t-6 6.5t-11.5 -2q-19 -11 -42.5 -26t-49 -31.5t-50 -34l-45.5 -32.5q-3 12 -5.5 29.5 t-4 35.5t-2 35.5t0.5 29.5q0 12 -5.5 15.5t-13 1.5t-13.5 -8.5t-7 -13.5q-2 -12 -2 -30t2 -38.5t5.5 -42t8.5 -41.5q-29 -24 -63 -55t-65.5 -61.5t-56 -59t-34.5 -48.5q-10 -21 -4 -38.5t13 -20.5q8 -2 13 -2h10q7 0 7 5q0 6 -9 7q-8 0 -18 7q-8 5 -4.5 18.5t11.5 23.5 q20 27 48.5 56.5t58 57.5t56 50t43.5 34q20 -69 55 -135t88 -112q22 -19 52 -33t61 -17t59.5 8t48.5 43z" />
<glyph unicode="&#xd8;" horiz-adv-x="717" d="M84 -52q1 30 40 92q34 -18 73 -23.5t80 2.5q73 13 144.5 53t129 94.5t97 116.5t49.5 119q12 68 -3 117t-44 84q20 17 39 33t38 31q13 10 11 18q-1 9 -13 9t-22 -9q-17 -14 -36 -28.5t-38 -31.5q-18 17 -38 29.5t-39 20.5q-43 19 -92.5 29t-99.5 13t-98.5 -1t-88.5 -13.5 t-68.5 -24t-40.5 -32.5q-13 -20 -13.5 -40t8 -40t25.5 -39t40 -37q3 -3 1 -7t-4 -6q-23 -26 -45 -62.5t-36 -80t-17 -92t13 -97.5q21 -63 71 -94q-43 -68 -40 -99q4 -21 8 -27q6 0 9 23zM152 461q3 3 5 3t7 -2q19 -10 43.5 -21t37.5 -15q22 -6 22 -2t-21 15q-5 3 -13.5 7.5 t-18 10t-19 12t-16.5 12.5q-4 3 -1 10q7 9 22.5 23t37 27.5t47.5 24.5t53 15q13 1 25.5 -8t29.5 -10q10 0 17.5 2.5t10.5 7t-0.5 10t-15.5 10.5q-26 9 -58.5 6t-66 -14.5t-66.5 -30t-58 -41.5q-4 -4 -7 -4q-2 0 -7 5q-12 11 -23.5 24.5t-19 28t-10.5 30.5t2 31q6 18 32.5 32 t65 22t86 10.5t96.5 -1.5t95 -15.5t82 -30.5q16 -8 29.5 -19t27.5 -23q-66 -59 -138.5 -133.5t-155.5 -165.5q-60 -66 -104 -120t-75 -97q-11 11 -21.5 25t-16.5 32q-18 45 -19 90.5t9 87t28.5 77.5t39.5 62zM675 404q-14 -67 -54 -127t-92.5 -107t-110.5 -77.5t-107 -37.5 q-17 -3 -37.5 -4.5t-42 0t-43 7t-40.5 17.5q32 43 78.5 98t108.5 122q81 85 152.5 156.5t137.5 129.5q32 -38 46.5 -84t3.5 -93z" />
<glyph unicode="&#xd9;" horiz-adv-x="735" d="M811 665q0 1 0.5 2t0.5 3q0 10 -10.5 19t-20.5 9h-3q-11 -2 -17.5 -10t-13.5 -19q-4 -8 -5 -9q-36 -47 -85 -109t-104 -128.5t-112.5 -133.5t-111.5 -124.5t-101.5 -101.5t-81.5 -64q-29 -19 -51 -19q-34 0 -34 46q0 8 1 16.5t3 17.5q9 46 32.5 104.5t54.5 121t67.5 126 t72 120t66 103t51.5 75.5q5 8 5 13q0 8 -8 12.5t-19 4.5q-8 0 -17.5 -3.5t-14.5 -12.5q-23 -34 -55 -86t-67 -113.5t-70 -129t-63 -132t-46 -121.5t-20 -99v-3q0 -15 8 -29.5t20 -25.5t26.5 -18t28.5 -7q10 0 18 3q32 16 77.5 55.5t97.5 92.5t106 113.5t103 120t90 112.5 t65 89q13 21 25 21t12 -15q0 -10 -6 -23h-1q-26 -49 -58.5 -117.5t-61 -138.5t-47.5 -133t-19 -102q0 -3 0.5 -5.5t0.5 -5.5q1 -7 5 -16.5t9.5 -18.5t12 -15t12.5 -6h2q30 24 30 34q0 1 -3 1q-6 0 -12 -3q-17 -9 -23 -9q-13 0 -13 17q0 8 1 16t3 19q1 3 1 6t1 6 q4 31 18.5 75t35.5 95t47 106.5t52.5 109.5t52.5 104t46 90q4 8 7.5 14.5t6.5 12.5zM669 829q-18 17 -41 39t-45 42q-11 10 -20 18.5t-17 15.5h-1q-3 3 -6 3q-7 0 -12 -5t-5 -11q0 -2 7 -9q17 -13 39 -27.5t46 -30.5q15 -10 29 -19t25 -17h1q-1 0 -1 1h1zM670 828h-1v-1 q1 0 1 1z" />
<glyph unicode="&#xda;" horiz-adv-x="735" d="M811 665q0 1 0.5 2t0.5 3q0 10 -10.5 19t-20.5 9h-3q-11 -2 -17.5 -10t-13.5 -19q-4 -8 -5 -9q-36 -47 -85 -109t-104 -128.5t-112.5 -133.5t-111.5 -124.5t-101.5 -101.5t-81.5 -64q-29 -19 -51 -19q-34 0 -34 46q0 8 1 16.5t3 17.5q9 46 32.5 104.5t54.5 121t67.5 126 t72 120t66 103t51.5 75.5q5 8 5 13q0 8 -8 12.5t-19 4.5q-8 0 -17.5 -3.5t-14.5 -12.5q-23 -34 -55 -86t-67 -113.5t-70 -129t-63 -132t-46 -121.5t-20 -99v-3q0 -15 8 -29.5t20 -25.5t26.5 -18t28.5 -7q10 0 18 3q32 16 77.5 55.5t97.5 92.5t106 113.5t103 120t90 112.5 t65 89q13 21 25 21t12 -15q0 -10 -6 -23h-1q-26 -49 -58.5 -117.5t-61 -138.5t-47.5 -133t-19 -102q0 -3 0.5 -5.5t0.5 -5.5q1 -7 5 -16.5t9.5 -18.5t12 -15t12.5 -6h2q30 24 30 34q0 1 -3 1q-6 0 -12 -3q-17 -9 -23 -9q-13 0 -13 17q0 8 1 16t3 19q1 3 1 6t1 6 q4 31 18.5 75t35.5 95t47 106.5t52.5 109.5t52.5 104t46 90q4 8 7.5 14.5t6.5 12.5zM561 831q19 7 42 15t46.5 15.5t45 14.5t36.5 12h1q6 1 6 9q0 7 -4 12.5t-9 5.5l-2 -1q-11 -5 -27.5 -13t-34.5 -17q-26 -14 -53 -28t-48 -23q-1 -1 -2 -1v0q0 -2 2 -2q1 0 1.5 0.5t1.5 0.5 h-2z" />
<glyph unicode="&#xdb;" horiz-adv-x="735" d="M811 665q0 1 0.5 2t0.5 3q0 10 -10.5 19t-20.5 9h-3q-11 -2 -17.5 -10t-13.5 -19q-4 -8 -5 -9q-36 -47 -85 -109t-104 -128.5t-112.5 -133.5t-111.5 -124.5t-101.5 -101.5t-81.5 -64q-29 -19 -51 -19q-34 0 -34 46q0 8 1 16.5t3 17.5q9 46 32.5 104.5t54.5 121t67.5 126 t72 120t66 103t51.5 75.5q5 8 5 13q0 8 -8 12.5t-19 4.5q-8 0 -17.5 -3.5t-14.5 -12.5q-23 -34 -55 -86t-67 -113.5t-70 -129t-63 -132t-46 -121.5t-20 -99v-3q0 -15 8 -29.5t20 -25.5t26.5 -18t28.5 -7q10 0 18 3q32 16 77.5 55.5t97.5 92.5t106 113.5t103 120t90 112.5 t65 89q13 21 25 21t12 -15q0 -10 -6 -23h-1q-26 -49 -58.5 -117.5t-61 -138.5t-47.5 -133t-19 -102q0 -3 0.5 -5.5t0.5 -5.5q1 -7 5 -16.5t9.5 -18.5t12 -15t12.5 -6h2q30 24 30 34q0 1 -3 1q-6 0 -12 -3q-17 -9 -23 -9q-13 0 -13 17q0 8 1 16t3 19q1 3 1 6t1 6 q4 31 18.5 75t35.5 95t47 106.5t52.5 109.5t52.5 104t46 90q4 8 7.5 14.5t6.5 12.5zM618 856h3q11 0 31 -16q2 -2 5 -3.5t5 -3.5l20 -15q-29 29 -45 44t-18 16l-2 1q0 -2 -32 -24q-23 -16 -36 -23.5t-18 -10.5l-3 -3q57 30 90 38zM686 814l-1 -1h2v-1q1 0 1 1v1l-1 1h-1 l-4 3q1 -3 4 -4zM528 818q-1 -1 -2 -1v0q-1 -1 -3 -1q2 0 2 -2v1z" />
<glyph unicode="&#xdc;" horiz-adv-x="754" d="M811 665q0 1 0.5 2t0.5 3q0 10 -10.5 19t-20.5 9h-3q-11 -2 -17.5 -10t-13.5 -19q-4 -8 -5 -9q-36 -47 -85 -109t-104 -128.5t-112.5 -133.5t-111.5 -124.5t-101.5 -101.5t-81.5 -64q-29 -19 -51 -19q-34 0 -34 46q0 8 1 16.5t3 17.5q9 46 32.5 104.5t54.5 121t67.5 126 t72 120t66 103t51.5 75.5q5 8 5 13q0 8 -8 12.5t-19 4.5q-8 0 -17.5 -3.5t-14.5 -12.5q-23 -34 -55 -86t-67 -113.5t-70 -129t-63 -132t-46 -121.5t-20 -99v-3q0 -15 8 -29.5t20 -25.5t26.5 -18t28.5 -7q10 0 18 3q32 16 77.5 55.5t97.5 92.5t106 113.5t103 120t90 112.5 t65 89q13 21 25 21t12 -15q0 -10 -6 -23h-1q-26 -49 -58.5 -117.5t-61 -138.5t-47.5 -133t-19 -102q0 -3 0.5 -5.5t0.5 -5.5q1 -7 5 -16.5t9.5 -18.5t12 -15t12.5 -6h2q30 24 30 34q0 1 -3 1q-6 0 -12 -3q-17 -9 -23 -9q-13 0 -13 17q0 8 1 16t3 19q1 3 1 6t1 6 q4 31 18.5 75t35.5 95t47 106.5t52.5 109.5t52.5 104t46 90q4 8 7.5 14.5t6.5 12.5zM693 842q0 3 -0.5 10t-1 15t-2 14t-2.5 8h-1h-1q0 1 -1 1q-8 0 -19.5 -5.5t-13.5 -9.5v-2q-1 -1 -1 -8q0 -11 1 -21.5t3 -12.5q3 -3 6 -3q9 0 21 5t12 9zM592 843v10t-1 14.5t-2 14t-2 8.5 q-1 1 -3 1q-8 0 -20 -7t-15 -12q0 1 0.5 -0.5t0.5 -4.5q0 -11 2 -22.5t5 -15.5h3q8 0 20 5t12 9zM557 828v1q-1 0 -1 -1h1z" />
<glyph unicode="&#xdd;" horiz-adv-x="612" d="M743 616q3 7 1 17.5t-7.5 18t-13 9t-13.5 -9.5q-6 -12 -18 -28.5t-25.5 -34t-26 -34.5t-21.5 -30q-8 -12 -7.5 -23t0.5 -22q-14 -28 -41.5 -72.5t-60.5 -92.5t-67 -94t-61 -77q-6 36 -16 86t-24.5 106.5t-33.5 115t-42 111t-50.5 94.5t-58.5 66q-23 18 -51.5 16.5 t-55 -14.5t-48.5 -34.5t-33 -43.5q-5 -13 -6.5 -27.5t-1 -29t3 -27.5t4.5 -23q5 -14 12 -14q6 0 5 17q-1 29 3 56.5t15 53.5q21 46 58 58t75 -21q27 -24 52.5 -68.5t48 -100t41.5 -117.5t32 -121t20.5 -110t6.5 -85q-21 -27 -50 -61t-62.5 -71t-69.5 -73.5t-71 -68 t-68.5 -55t-60.5 -34.5q-25 -10 -37 -2.5t-7 27.5q3 15 7.5 31t9.5 32t10.5 30t8.5 23q5 11 2 12.5t-11 -7.5q-7 -10 -16 -23t-17 -28t-15 -31t-9 -31q-1 -12 5 -23.5t15 -20.5t20 -14.5t19 -3.5q37 8 89 46t110.5 93.5t119.5 123t117 134.5q31 38 67 84.5t73 96.5t72 100 t65.5 95.5t53.5 84t35 63.5zM413 782q19 8 42 17t46 17.5t44 16.5t36 13q8 3 9.5 10.5t-1 15t-8.5 12.5t-12 2q-14 -7 -34.5 -19t-43 -25.5t-44.5 -26t-40 -20.5q-7 -3 -4 -9.5t10 -3.5z" />
<glyph unicode="&#xde;" horiz-adv-x="562" d="M208 392q51 39 92.5 62t77.5 34q91 20 106 -58q26 -88 -33 -187q-64 -59 -121.5 -94t-102.5 -55t-74.5 -30t-36.5 -20q-3 -5 -4.5 -8.5t0.5 -7.5q9 -30 39 -20q54 29 106 54.5t97 53t82 58.5t61.5 71.5t34 92t0.5 119.5q-2 6 -11 20t-24.5 26.5t-37.5 20t-50 0.5 q-74 -15 -185 -86q37 106 68.5 192.5t65.5 157.5q4 14 8.5 16t3.5 7q-1 16 -20 3q-44 -29 -50 -40q-51 -128 -88 -221.5t-62 -155.5q-32 -20 -48 -37.5t-18 -29.5q0 -19 35 -39q-23 -84 -48.5 -168t-48.5 -163q4 -2 9 -0.5t10 4t8.5 3.5t5.5 -2q12 34 31.5 87.5t41.5 113.5 t43.5 119.5t36.5 106.5z" />
<glyph unicode="&#xdf;" horiz-adv-x="531" d="M651 619q17 44 10 81t-29.5 64t-56.5 41.5t-70 12.5q-19 0 -42 -9.5t-48 -27t-50 -42.5t-47 -57q-44 -60 -78 -121t-63 -113q-22 -6 -55 -11t-59 -19q-6 -4 -9 -11.5t-1 -13.5t8 -8.5t18 4.5q21 11 43 13.5t36 4.5q-31 -69 -64 -154.5t-63 -176.5t-55.5 -182.5 t-40.5 -172.5q-3 -14 -0.5 -23t6.5 -11t9.5 3.5t8.5 20.5q33 138 76.5 272t94 256t106.5 228t115 187q45 63 84 91.5t72 34.5q43 8 70 -5.5t39 -37.5t11.5 -52t-10.5 -49q-18 -36 -51 -69t-72 -61t-79 -51t-73 -40q-38 -20 -52.5 -38.5t-10 -35.5t27 -31t58.5 -24 q17 -5 37 -11.5t39 -11.5q49 -13 63 -41.5t-14 -62.5q-28 -32 -61.5 -53t-70.5 -35.5t-75.5 -22.5t-77.5 -13q-11 -1 -19 1.5t-12 6.5t-1.5 10t13.5 12t3 12.5t-33 -2.5q-11 -3 -19 -12.5t-10 -20.5q-4 -6 -1 -15t11 -16.5t21 -12.5t30 -4q38 3 87 13.5t97 29.5t91 46.5 t69 62.5q13 20 10 42.5t-15 43t-28.5 35.5t-28.5 20q-8 3 -19.5 7.5t-24.5 9t-25 9l-20 7.5q-40 15 -43.5 29t37.5 34q28 14 70 40.5t83.5 58.5t75.5 68t47 69z" />
<glyph unicode="&#xe0;" d="M36 -28q32 20 70 47t81 65q44 37 77.5 69.5t57.5 61.5q2 2 4 2q7 0 1 -11q-17 -26 -33.5 -57t-33.5 -68q-28 -60 -42.5 -110.5t-16.5 -92.5q-2 -51 33 -78q32 -26 81 -26q15 0 29.5 2.5t28.5 7.5q54 21 136 88q45 38 78 72.5t55 68.5q5 7 5 11q0 2 -1 4q-4 0 -12 -10 q-47 -61 -130 -128q-85 -69 -139 -86q-35 -12 -70 -12q-78 0 -78 67v10q0 4 1 9q9 58 32.5 122.5t65.5 134.5q26 45 55 88.5t57 88.5q1 3 -1.5 7.5t-7.5 4.5q-3 0 -5 -2q-12 -10 -27 -13q-2 -1 -18 1q-26 9 -49 9q-22 0 -41 -8q-38 -16 -83.5 -47t-96.5 -82 q-111 -111 -111 -183q0 -34 25 -34q13 0 23 7zM53 57q28 66 94 140q72 79 119 91q12 3 23 3q21 0 33.5 -9t12.5 -20q0 -5 -3 -8q-70 -85 -132.5 -144t-118.5 -95q-8 -5 -15 -5q-18 0 -18 24q0 11 5 23zM375 420q-13 12 -29.5 27.5t-33.5 31.5t-33 31t-27 26q-6 5 -13 3 t-12 -7.5t-6 -12.5t5 -11q13 -10 31.5 -22.5t38 -25.5l39 -26l34.5 -23q4 -3 8 0.5t-2 8.5z" />
<glyph unicode="&#xe1;" d="M36 -28q32 20 70 47t81 65q44 37 77.5 69.5t57.5 61.5q2 2 4 2q7 0 1 -11q-17 -26 -33.5 -57t-33.5 -68q-28 -60 -42.5 -110.5t-16.5 -92.5q-2 -51 33 -78q32 -26 81 -26q15 0 29.5 2.5t28.5 7.5q54 21 136 88q45 38 78 72.5t55 68.5q5 7 5 11q0 2 -1 4q-4 0 -12 -10 q-47 -61 -130 -128q-85 -69 -139 -86q-35 -12 -70 -12q-78 0 -78 67v10q0 4 1 9q9 58 32.5 122.5t65.5 134.5q26 45 55 88.5t57 88.5q1 3 -1.5 7.5t-7.5 4.5q-3 0 -5 -2q-12 -10 -27 -13q-2 -1 -18 1q-26 9 -49 9q-22 0 -41 -8q-38 -16 -83.5 -47t-96.5 -82 q-111 -111 -111 -183q0 -34 25 -34q13 0 23 7zM53 57q28 66 94 140q72 79 119 91q12 3 23 3q21 0 33.5 -9t12.5 -20q0 -5 -3 -8q-70 -85 -132.5 -144t-118.5 -95q-8 -5 -15 -5q-18 0 -18 24q0 11 5 23zM210 414q19 7 42 15t46.5 15.5t45 14.5t36.5 12q7 2 8.5 9t-1 13.5 t-8 11t-12.5 1.5q-14 -7 -34.5 -17.5t-43 -21.5t-44.5 -22t-40 -19q-7 -4 -4.5 -9.5t9.5 -2.5z" />
<glyph unicode="&#xe2;" d="M36 -28q32 20 70 47t81 65q44 37 77.5 69.5t57.5 61.5q2 2 4 2q7 0 1 -11q-17 -26 -33.5 -57t-33.5 -68q-28 -60 -42.5 -110.5t-16.5 -92.5q-2 -51 33 -78q32 -26 81 -26q15 0 29.5 2.5t28.5 7.5q54 21 136 88q45 38 78 72.5t55 68.5q5 7 5 11q0 2 -1 4q-4 0 -12 -10 q-47 -61 -130 -128q-85 -69 -139 -86q-35 -12 -70 -12q-78 0 -78 67v10q0 4 1 9q9 58 32.5 122.5t65.5 134.5q26 45 55 88.5t57 88.5q1 3 -1.5 7.5t-7.5 4.5q-3 0 -5 -2q-12 -10 -27 -13q-2 -1 -18 1q-26 9 -49 9q-22 0 -41 -8q-38 -16 -83.5 -47t-96.5 -82 q-111 -111 -111 -183q0 -34 25 -34q13 0 23 7zM53 57q28 66 94 140q72 79 119 91q12 3 23 3q21 0 33.5 -9t12.5 -20q0 -5 -3 -8q-70 -85 -132.5 -144t-118.5 -95q-8 -5 -15 -5q-18 0 -18 24q0 11 5 23zM306 448q5 1 29 -16q8 -5 17.5 -11.5t17.5 -13.5q3 -3 5 -2q5 2 5 4 t-4 6q-32 32 -49 48t-19 17q-1 1 -40 -25q-23 -15 -37.5 -24.5t-20.5 -12.5q-2 -2 -2.5 -3.5t-0.5 -4.5q0 -6 8 -1q53 28 91 39z" />
<glyph unicode="&#xe3;" d="M36 -28q32 20 70 47t81 65q44 37 77.5 69.5t57.5 61.5q2 2 4 2q7 0 1 -11q-17 -26 -33.5 -57t-33.5 -68q-28 -60 -42.5 -110.5t-16.5 -92.5q-2 -51 33 -78q32 -26 81 -26q15 0 29.5 2.5t28.5 7.5q54 21 136 88q45 38 78 72.5t55 68.5q5 7 5 11q0 2 -1 4q-4 0 -12 -10 q-47 -61 -130 -128q-85 -69 -139 -86q-35 -12 -70 -12q-78 0 -78 67v10q0 4 1 9q9 58 32.5 122.5t65.5 134.5q26 45 55 88.5t57 88.5q1 3 -1.5 7.5t-7.5 4.5q-3 0 -5 -2q-12 -10 -27 -13q-2 -1 -18 1q-26 9 -49 9q-22 0 -41 -8q-38 -16 -83.5 -47t-96.5 -82 q-111 -111 -111 -183q0 -34 25 -34q13 0 23 7zM53 57q28 66 94 140q72 79 119 91q12 3 23 3q21 0 33.5 -9t12.5 -20q0 -5 -3 -8q-70 -85 -132.5 -144t-118.5 -95q-8 -5 -15 -5q-18 0 -18 24q0 11 5 23zM176 424q11 8 26 14t32 6q10 0 24.5 -5.5t29.5 -11.5t29 -11.5t24 -5.5 q17 0 33 14.5t26 24.5q8 10 5 13t-13 -5q-11 -11 -19.5 -14t-31.5 -3q-11 0 -25 5.5t-29 11.5t-29 11.5t-24 5.5q-8 0 -17 -4.5t-17.5 -11t-16 -13.5t-13.5 -13q-7 -9 -6 -13.5t12 5.5z" />
<glyph unicode="&#xe4;" d="M36 -28q32 20 70 47t81 65q44 37 77.5 69.5t57.5 61.5q2 2 4 2q7 0 1 -11q-17 -26 -33.5 -57t-33.5 -68q-28 -60 -42.5 -110.5t-16.5 -92.5q-2 -51 33 -78q32 -26 81 -26q15 0 29.5 2.5t28.5 7.5q54 21 136 88q45 38 78 72.5t55 68.5q5 7 5 11q0 2 -1 4q-4 0 -12 -10 q-47 -61 -130 -128q-85 -69 -139 -86q-35 -12 -70 -12q-78 0 -78 67v10q0 4 1 9q9 58 32.5 122.5t65.5 134.5q26 45 55 88.5t57 88.5q1 3 -1.5 7.5t-7.5 4.5q-3 0 -5 -2q-12 -10 -27 -13q-2 -1 -18 1q-26 9 -49 9q-22 0 -41 -8q-38 -16 -83.5 -47t-96.5 -82 q-111 -111 -111 -183q0 -34 25 -34q13 0 23 7zM53 57q28 66 94 140q72 79 119 91q12 3 23 3q21 0 33.5 -9t12.5 -20q0 -5 -3 -8q-70 -85 -132.5 -144t-118.5 -95q-8 -5 -15 -5q-18 0 -18 24q0 11 5 23zM360 433q0 3 -0.5 11t-1.5 16.5t-2.5 15.5t-4.5 9q-2 3 -8.5 2 t-13.5 -4t-13.5 -7t-7.5 -7q-2 -3 -2 -10t1 -15.5t2.5 -16t3.5 -10.5q3 -3 11 -2t16 4t14 7t6 7zM258 435v10q0 8 -1 16.5t-2 15.5t-3 9q-3 3 -9.5 2t-13.5 -4t-13 -7t-8 -7t-1.5 -10t1.5 -15.5t3 -16t4 -10.5t9 -2t14.5 4t13.5 7.5t6 7.5z" />
<glyph unicode="&#xe5;" d="M36 -28q32 20 70 47t81 65q44 37 77.5 69.5t57.5 61.5q2 2 4 2q7 0 1 -11q-17 -26 -33.5 -57t-33.5 -68q-28 -60 -42.5 -110.5t-16.5 -92.5q-2 -51 33 -78q32 -26 81 -26q15 0 29.5 2.5t28.5 7.5q54 21 136 88q45 38 78 72.5t55 68.5q5 7 5 11q0 2 -1 4q-4 0 -12 -10 q-47 -61 -130 -128q-85 -69 -139 -86q-35 -12 -70 -12q-78 0 -78 67v10q0 4 1 9q9 58 32.5 122.5t65.5 134.5q26 45 55 88.5t57 88.5q1 3 -1.5 7.5t-7.5 4.5q-3 0 -5 -2q-12 -10 -27 -13q-2 -1 -18 1q-26 9 -49 9q-22 0 -41 -8q-38 -16 -83.5 -47t-96.5 -82 q-111 -111 -111 -183q0 -34 25 -34q13 0 23 7zM53 57q28 66 94 140q72 79 119 91q12 3 23 3q21 0 33.5 -9t12.5 -20q0 -5 -3 -8q-70 -85 -132.5 -144t-118.5 -95q-8 -5 -15 -5q-18 0 -18 24q0 11 5 23zM263 448q0 17 -12.5 28.5t-29.5 11.5t-29 -11.5t-12 -28.5t12 -28.5 t29 -11.5t29.5 11.5t12.5 28.5zM221 416q-13 0 -22.5 9t-9.5 23q0 13 9.5 23t22.5 10q14 0 23.5 -10t9.5 -23q0 -14 -9.5 -23t-23.5 -9z" />
<glyph unicode="&#xe6;" horiz-adv-x="559" d="M48 14q44 8 85.5 34t76.5 59t63 68t45 62q-12 -22 -24 -51t-23 -58q-15 -42 -14 -80t15 -65.5t40 -42t63 -8.5q18 3 36.5 10t35 16t30.5 18.5t24 17.5q7 6 3 9.5t-12 -1.5q-24 -16 -60 -30t-68 -18q-13 -2 -25.5 0.5t-23.5 10.5t-18.5 22t-9.5 36q-1 24 4 46.5t13 43.5 t18 39.5t19 33.5h70t80 1t73.5 2t50.5 4q26 4 47.5 19.5t29.5 26.5q5 7 0.5 9t-8.5 -5q-10 -11 -30.5 -22t-41.5 -13q-31 -5 -85 -5.5t-110 -0.5q49 8 85.5 27.5t48.5 47.5q6 15 2.5 33t-14 32.5t-26.5 22t-34 0.5q-14 -5 -29 -15t-31 -22q5 8 10 15.5t10 15.5q1 2 -1.5 7 t-7.5 5q-3 0 -5 -2q-9 -9 -27 -14q-2 -1 -18 1q-26 9 -49 9q-11 0 -21.5 -2t-19.5 -5q-38 -16 -83.5 -47.5t-96.5 -82.5q-111 -111 -111 -183q0 -34 25 -34zM64 103q14 32 37 67.5t57 72.5q73 81 119 91q11 4 23 4q21 0 33.5 -9.5t12.5 -20.5q0 -5 -3 -8 q-138 -166 -251 -238q-8 -6 -15 -6q-18 0 -18 24q0 11 5 23zM525 286q-10 -18 -28.5 -33.5t-42 -26.5t-50.5 -17.5t-53 -6.5q28 38 62 72t69 56q13 8 24.5 8.5t18.5 -6t8 -18.5t-8 -28z" />
<glyph unicode="&#xe7;" horiz-adv-x="311" d="M15 91q0 -31 26 -60q10 -13 22 -19q-7 -5 -12.5 -9.5t-9.5 -8.5q-4 -3 3 -7q16 -5 22.5 -12.5t-0.5 -17.5q-5 -9 -21.5 -19t-31.5 -11q-6 0 -5 -3t6 -3q20 2 41.5 13t26.5 21q5 8 4 14.5t-4.5 11.5t-9 7.5t-9.5 3.5q-4 2 -3.5 4t2.5 4t6 8q7 -4 14.5 -5.5t15.5 -2.5 q21 0 66 16q28 11 51 23t40 28q7 4 7 9q0 2 -1 2q-6 0 -10 -7q-26 -22 -65 -38q-48 -20 -86 -15q-42 5 -54 28q-5 13 -5 33q0 22 6.5 48t18.5 59q21 52 67 110q26 32 50.5 52.5t47.5 31.5q4 2 13 2q10 0 20 -2.5l18 -4.5q6 -2 11 7q2 3 3.5 6.5t2.5 5.5q0 2 -5 5.5t-10 3.5 q-17 1 -53 -14q-59 -23 -114 -87q-24 -28 -43 -57t-33 -60q-12 -26 -19 -49.5t-7 -44.5z" />
<glyph unicode="&#xe8;" horiz-adv-x="338" d="M459 295q5 8 1 10t-9 -6q-11 -11 -32 -23.5t-43 -14.5q-16 -3 -38 -4t-47.5 -1.5t-53.5 -0.5h-54q49 8 87.5 29.5t52.5 52.5q9 15 8 35t-9.5 35.5t-23 23.5t-33.5 1q-34 -15 -77.5 -52.5t-82 -89t-66 -111.5t-30.5 -120q-1 -22 9 -41t25 -33t32.5 -21.5t32.5 -4.5 q18 3 37 11t36.5 18t32.5 21t26 20q8 5 4 9t-12 -2q-13 -9 -29.5 -17.5t-34 -15.5t-35.5 -12.5t-34 -7.5q-13 -1 -25 1.5t-21.5 11t-15 24t-4.5 39.5q1 26 9 51t18.5 47.5t23 43t23.5 37.5h69q40 0 79 0.5t71.5 1.5t49.5 4q29 5 51.5 22t31.5 29zM299 346q-12 -20 -32 -36.5 t-44.5 -28.5t-51.5 -19t-53 -7q33 41 70 78.5t75 61.5q14 9 25 9q12 0 18 -7t5 -20t-12 -31zM335 496q-13 12 -29.5 27.5t-33.5 31.5t-33 31t-27 26q-6 5 -13 3t-12 -7.5t-6 -12.5t5 -11q13 -10 31.5 -22.5t38 -25.5l39 -26l34.5 -23q4 -3 8 0.5t-2 8.5z" />
<glyph unicode="&#xe9;" horiz-adv-x="338" d="M459 295q5 8 1 10t-9 -6q-11 -11 -32 -23.5t-43 -14.5q-16 -3 -38 -4t-47.5 -1.5t-53.5 -0.5h-54q49 8 87.5 29.5t52.5 52.5q9 15 8 35t-9.5 35.5t-23 23.5t-33.5 1q-34 -15 -77.5 -52.5t-82 -89t-66 -111.5t-30.5 -120q-1 -22 9 -41t25 -33t32.5 -21.5t32.5 -4.5 q18 3 37 11t36.5 18t32.5 21t26 20q8 5 4 9t-12 -2q-13 -9 -29.5 -17.5t-34 -15.5t-35.5 -12.5t-34 -7.5q-13 -1 -25 1.5t-21.5 11t-15 24t-4.5 39.5q1 26 9 51t18.5 47.5t23 43t23.5 37.5h69q40 0 79 0.5t71.5 1.5t49.5 4q29 5 51.5 22t31.5 29zM299 346q-12 -20 -32 -36.5 t-44.5 -28.5t-51.5 -19t-53 -7q33 41 70 78.5t75 61.5q14 9 25 9q12 0 18 -7t5 -20t-12 -31zM299 487q16 12 36.5 25.5t41.5 27t39.5 25.5t32.5 21q6 4 5.5 11t-5 13t-11 9t-11.5 -1q-12 -10 -29 -25.5t-36 -32.5t-37.5 -34t-33.5 -29q-5 -5 -1 -9.5t9 -0.5z" />
<glyph unicode="&#xea;" horiz-adv-x="338" d="M459 295q5 8 1 10t-9 -6q-11 -11 -32 -23.5t-43 -14.5q-16 -3 -38 -4t-47.5 -1.5t-53.5 -0.5h-54q49 8 87.5 29.5t52.5 52.5q9 15 8 35t-9.5 35.5t-23 23.5t-33.5 1q-34 -15 -77.5 -52.5t-82 -89t-66 -111.5t-30.5 -120q-1 -22 9 -41t25 -33t32.5 -21.5t32.5 -4.5 q18 3 37 11t36.5 18t32.5 21t26 20q8 5 4 9t-12 -2q-13 -9 -29.5 -17.5t-34 -15.5t-35.5 -12.5t-34 -7.5q-13 -1 -25 1.5t-21.5 11t-15 24t-4.5 39.5q1 26 9 51t18.5 47.5t23 43t23.5 37.5h69q40 0 79 0.5t71.5 1.5t49.5 4q29 5 51.5 22t31.5 29zM299 346q-12 -20 -32 -36.5 t-44.5 -28.5t-51.5 -19t-53 -7q33 41 70 78.5t75 61.5q14 9 25 9q12 0 18 -7t5 -20t-12 -31zM263 533q5 2 30 -15q8 -6 17 -12t17 -13q3 -3 5 -2q5 2 5 4l-4 6q-63 61 -68 64q-2 1 -39 -24q-23 -16 -38 -25t-21 -12q-3 -5 -3 -8q0 -6 8 -1q55 29 91 38z" />
<glyph unicode="&#xeb;" horiz-adv-x="338" d="M459 295q5 8 1 10t-9 -6q-11 -11 -32 -23.5t-43 -14.5q-16 -3 -38 -4t-47.5 -1.5t-53.5 -0.5h-54q49 8 87.5 29.5t52.5 52.5q9 15 8 35t-9.5 35.5t-23 23.5t-33.5 1q-34 -15 -77.5 -52.5t-82 -89t-66 -111.5t-30.5 -120q-1 -22 9 -41t25 -33t32.5 -21.5t32.5 -4.5 q18 3 37 11t36.5 18t32.5 21t26 20q8 5 4 9t-12 -2q-13 -9 -29.5 -17.5t-34 -15.5t-35.5 -12.5t-34 -7.5q-13 -1 -25 1.5t-21.5 11t-15 24t-4.5 39.5q1 26 9 51t18.5 47.5t23 43t23.5 37.5h69q40 0 79 0.5t71.5 1.5t49.5 4q29 5 51.5 22t31.5 29zM299 346q-12 -20 -32 -36.5 t-44.5 -28.5t-51.5 -19t-53 -7q33 41 70 78.5t75 61.5q14 9 25 9q12 0 18 -7t5 -20t-12 -31zM342 529q0 3 -0.5 11t-1.5 16t-2.5 15.5t-4.5 9.5q-2 3 -8 1.5t-13.5 -4.5t-13.5 -7t-8 -7q-2 -2 -2 -10q0 -7 1 -15t3 -15.5t4 -10.5q3 -3 11 -2t15.5 4t13.5 7t6 7zM241 530 q0 3 -0.5 11l-1 16t-2 15.5t-3.5 9.5q-3 3 -9 2t-13 -4.5t-13.5 -7.5t-8.5 -7q-2 -2 -1.5 -9.5t1.5 -15.5t3 -15.5t4 -10.5q3 -3 10 -2t14.5 4t13.5 7t6 7z" />
<glyph unicode="&#xec;" horiz-adv-x="240" d="M290 130q6 5 9 11t2.5 9t-4.5 2t-13 -10q-14 -13 -40 -32t-56 -38t-59 -34t-48 -19q-9 -2 -19 -2.5t-16.5 5t-6.5 18.5q0 14 12 40q13 30 30 60.5t36 59t37 52.5t32 41q13 16 9.5 26t-13.5 14t-21.5 0.5t-13.5 -15.5q-1 -5 -11 -21.5t-24.5 -40.5t-32 -52.5t-32 -56.5 t-24.5 -53t-10 -41q0 -18 9.5 -30.5t22 -20t25 -9.5t18.5 0q22 10 51.5 28t59 38.5t54.5 39.5t37 31zM260 397q-24 21 -50.5 49t-48.5 53q-6 7 -14 6t-13.5 -6.5t-6 -13.5t8.5 -14q15 -12 31 -24t31 -23.5t28.5 -21.5t23.5 -18q13 -10 16.5 -3t-6.5 16z" />
<glyph unicode="&#xed;" horiz-adv-x="246" d="M290 130q6 5 9 11t2.5 9t-4.5 2t-13 -10q-14 -13 -40 -32t-56 -38t-59 -34t-48 -19q-9 -2 -19 -2.5t-16.5 5t-6.5 18.5q0 14 12 40q13 30 30 60.5t36 59t37 52.5t32 41q13 16 9.5 26t-13.5 14t-21.5 0.5t-13.5 -15.5q-1 -5 -11 -21.5t-24.5 -40.5t-32 -52.5t-32 -56.5 t-24.5 -53t-10 -41q0 -18 9.5 -30.5t22 -20t25 -9.5t18.5 0q22 10 51.5 28t59 38.5t54.5 39.5t37 31zM312 463q10 4 11.5 11t-2 13t-11 8.5t-15.5 -3.5q-13 -10 -30 -22t-34.5 -24t-34.5 -23t-30 -19q-12 -6 -10 -13.5t17 0.5q11 6 27.5 14.5t36 18.5l39 20t36.5 19z" />
<glyph unicode="&#xee;" horiz-adv-x="240" d="M290 130q6 5 9 11t2.5 9t-4.5 2t-13 -10q-14 -13 -40 -32t-56 -38t-59 -34t-48 -19q-9 -2 -19 -2.5t-16.5 5t-6.5 18.5q0 14 12 40q13 30 30 60.5t36 59t37 52.5t32 41q13 16 9.5 26t-13.5 14t-21.5 0.5t-13.5 -15.5q-1 -5 -11 -21.5t-24.5 -40.5t-32 -52.5t-32 -56.5 t-24.5 -53t-10 -41q0 -18 9.5 -30.5t22 -20t25 -9.5t18.5 0q22 10 51.5 28t59 38.5t54.5 39.5t37 31zM305 402q-11 17 -23 37t-25 38q-5 7 -16.5 8t-21.5 -5q-8 -5 -24.5 -15.5t-35.5 -22.5t-37 -23.5t-30 -19.5q-10 -6 -6.5 -13.5t15.5 0.5q10 7 25.5 14.5t33 15.5t36 15.5 t34.5 15.5q1 0 2.5 0.5t6.5 -1.5q10 -8 26 -23.5t28 -29.5q9 -11 13.5 -7.5t-1.5 16.5z" />
<glyph unicode="&#xef;" horiz-adv-x="240" d="M290 130q6 5 9 11t2.5 9t-4.5 2t-13 -10q-14 -13 -40 -32t-56 -38t-59 -34t-48 -19q-9 -2 -19 -2.5t-16.5 5t-6.5 18.5q0 14 12 40q13 30 30 60.5t36 59t37 52.5t32 41q13 16 9.5 26t-13.5 14t-21.5 0.5t-13.5 -15.5q-1 -5 -11 -21.5t-24.5 -40.5t-32 -52.5t-32 -56.5 t-24.5 -53t-10 -41q0 -18 9.5 -30.5t22 -20t25 -9.5t18.5 0q22 10 51.5 28t59 38.5t54.5 39.5t37 31zM262 409q0 3 -0.5 11t-1.5 16t-2.5 15.5t-4.5 9.5q-2 3 -8 2t-13.5 -4.5t-13.5 -7.5t-8 -7q-2 -2 -2 -10q0 -7 1 -15t3 -15.5t4 -10.5q3 -3 10.5 -2t15.5 4t14 7t6 7z M161 410q0 3 -0.5 11t-1 16.5t-2 15.5t-3.5 9q-3 3 -9.5 2t-13.5 -4t-13 -7t-8 -7t-1.5 -10t1.5 -15.5t3 -16t4 -10.5t9.5 -2t15 4t13.5 7t6 7z" />
<glyph unicode="&#xf0;" horiz-adv-x="444" d="M358 492q3 -124 -36 -244q-18 52 -41.5 94t-50.5 74q-8 9 -15.5 15t-13.5 9q-65 42 -121 -11q-46 -35 -60 -106q-8 -27 -9 -57t7 -68q15 -83 59 -133q19 -17 40 -34q77 -47 147 11q51 42 81.5 113t37.5 168q7 55 7.5 103t-4.5 93q17 -14 31 -17q17 -6 37 2.5t33 16.5 q12 7 9 11.5t-14 -1.5q-15 -8 -25 -8t-32 7q-11 4 -22 11.5t-22 16.5q-6 29 -12.5 57.5t-16 54.5t-23.5 48.5t-34 40.5q-7 -4 6 -22q42 -65 50 -154q-8 5 -15 9t-12 6q-9 2 -19.5 0t-21 -6t-20.5 -9t-17 -9q-8 -7 -8.5 -10.5t13.5 1.5t31.5 6.5t34.5 -3.5q8 -3 18 -9.5 t24 -17.5zM191 400q14 -5 27 -16.5t27 -28.5q51 -57 74 -125q-15 -97 -92 -157q-40 -37 -80 -31q-14 2 -28.5 10.5t-27.5 23.5q-20 22 -30.5 50t-18.5 62q-8 35 -4.5 67t14.5 60q8 19 18.5 33.5t25.5 26.5q51 42 95 25z" />
<glyph unicode="&#xf1;" horiz-adv-x="477" d="M300 -53q9 8 8 17.5t-14 -0.5q-8 -6 -22 -12t-21 -8q-22 -6 -25 3t1 38q2 14 16.5 38.5t35 54t45 62t47 63.5t40.5 58t27 46q6 13 -6.5 25t-28.5 11q-25 -2 -66 -29.5t-87.5 -67.5t-92 -84.5t-79.5 -81.5q-5 -6 -11.5 -8.5t-11 -1t-5.5 7.5t5 17q19 34 43.5 75.5t50.5 81 t50.5 72t43.5 48.5q10 9 10 17q0 9 -6 14.5t-15.5 5t-18.5 -9.5q-17 -18 -38.5 -47t-44.5 -64.5t-45 -74t-41 -73.5t-32.5 -64.5t-18.5 -46.5q-3 -11 -2.5 -21.5t3.5 -17t8 -7.5t11 5q37 42 80.5 87.5t89 88t89 78t80.5 58.5q12 8 21 8q10 0 15.5 -4.5t6 -13t-3.5 -16.5 q-6 -11 -23 -32.5t-39.5 -49.5t-47.5 -59.5t-45.5 -61t-33.5 -54t-13 -39.5q-1 -9 3 -19t11 -19t16 -15.5t20 -7.5q11 -2 30.5 9t30.5 21zM179 485q11 8 26.5 14.5t32.5 6.5q10 0 24 -5.5t29 -11.5t29 -11.5t24 -5.5q17 0 33.5 14t26.5 24q8 11 4.5 13.5t-13.5 -5.5 q-10 -10 -19 -13t-32 -3q-10 0 -24.5 5.5t-29.5 11.5t-29 11.5t-23 5.5q-8 0 -17 -4.5t-18 -11t-16.5 -14l-12.5 -12.5q-8 -9 -7 -13.5t12 4.5z" />
<glyph unicode="&#xf2;" horiz-adv-x="371" d="M64 -17q88 13 205 114q60 51 89.5 94.5t32.5 81.5q0 2 -1 5l-2 6q-2 3 0 6q9 12 40 12q15 0 15 6q0 2 -15 4q-42 1 -74.5 2t-55.5 2q-2 1 -3.5 2t-3.5 2q-29 19 -45 18q-22 -1 -44 -22q-7 -4 -11 -4q-1 0 -38 -1q-23 -1 -26 -6t-3 -8q0 -6 9 -12.5t18 -11.5q6 -2 2 -9 q-132 -162 -134 -245q0 -8 4.5 -15t11 -12t14.5 -7.5t15 -1.5zM50 36q58 138 165 237q15 10 17 9q18 7 39 9.5t45 -0.5q45 -5 38 -35q-15 -73 -115 -162q-95 -87 -163 -98q-32 -6 -32 18q0 11 6 22zM366 393q-13 12 -29.5 27.5t-33.5 31.5t-33 30.5t-27 25.5q-6 5 -13 3 t-12 -7t-6 -12t5 -11q13 -10 31.5 -22.5t38 -26t39 -26t34.5 -22.5q4 -3 8 0.5t-2 8.5z" />
<glyph unicode="&#xf3;" horiz-adv-x="371" d="M64 -17q88 13 205 114q60 51 89.5 94.5t32.5 81.5q0 2 -1 5l-2 6q-2 3 0 6q9 12 40 12q15 0 15 6q0 2 -15 4q-42 1 -74.5 2t-55.5 2q-2 1 -3.5 2t-3.5 2q-29 19 -45 18q-22 -1 -44 -22q-7 -4 -11 -4q-1 0 -38 -1q-23 -1 -26 -6t-3 -8q0 -6 9 -12.5t18 -11.5q6 -2 2 -9 q-132 -162 -134 -245q0 -8 4.5 -15t11 -12t14.5 -7.5t15 -1.5zM50 36q58 138 165 237q15 10 17 9q18 7 39 9.5t45 -0.5q45 -5 38 -35q-15 -73 -115 -162q-95 -87 -163 -98q-32 -6 -32 18q0 11 6 22zM224 411q16 12 36.5 25.5t41.5 27t39.5 25.5t32.5 21q7 4 6 11t-5.5 13 t-11 9t-11.5 -1q-12 -10 -29 -25.5t-36 -32.5t-37.5 -34t-32.5 -29q-6 -5 -2 -9.5t9 -0.5z" />
<glyph unicode="&#xf4;" horiz-adv-x="371" d="M64 -17q88 13 205 114q60 51 89.5 94.5t32.5 81.5q0 2 -1 5l-2 6q-2 3 0 6q9 12 40 12q15 0 15 6q0 2 -15 4q-42 1 -74.5 2t-55.5 2q-2 1 -3.5 2t-3.5 2q-29 19 -45 18q-22 -1 -44 -22q-7 -4 -11 -4q-1 0 -38 -1q-23 -1 -26 -6t-3 -8q0 -6 9 -12.5t18 -11.5q6 -2 2 -9 q-132 -162 -134 -245q0 -8 4.5 -15t11 -12t14.5 -7.5t15 -1.5zM50 36q58 138 165 237q15 10 17 9q18 7 39 9.5t45 -0.5q45 -5 38 -35q-15 -73 -115 -162q-95 -87 -163 -98q-32 -6 -32 18q0 11 6 22zM306 447q5 1 29 -16q8 -5 17.5 -11.5t17.5 -13.5q3 -3 5 -2q5 2 5 4l-4 6 q-32 32 -49 47.5t-19 17.5q-1 1 -40 -25q-23 -16 -37.5 -25t-20.5 -12q-2 -2 -2.5 -3.5t-0.5 -4.5q0 -6 8 -1q53 28 91 39z" />
<glyph unicode="&#xf5;" horiz-adv-x="371" d="M64 -17q88 13 205 114q60 51 89.5 94.5t32.5 81.5q0 2 -1 5l-2 6q-2 3 0 6q9 12 40 12q15 0 15 6q0 2 -15 4q-42 1 -74.5 2t-55.5 2q-2 1 -3.5 2t-3.5 2q-29 19 -45 18q-22 -1 -44 -22q-7 -4 -11 -4q-1 0 -38 -1q-23 -1 -26 -6t-3 -8q0 -6 9 -12.5t18 -11.5q6 -2 2 -9 q-132 -162 -134 -245q0 -8 4.5 -15t11 -12t14.5 -7.5t15 -1.5zM50 36q58 138 165 237q15 10 17 9q18 7 39 9.5t45 -0.5q45 -5 38 -35q-15 -73 -115 -162q-95 -87 -163 -98q-32 -6 -32 18q0 11 6 22zM191 437q11 8 26.5 14.5t32.5 6.5q10 0 24 -5.5t29 -11.5t29 -11.5 t24 -5.5q18 0 34 14t26 24q8 10 4.5 13t-13.5 -5q-10 -10 -19 -13.5t-32 -3.5q-10 0 -24.5 5.5t-29.5 11.5t-29 11.5t-23 5.5q-8 0 -17 -4.5t-18 -11t-16.5 -13.5t-12.5 -12q-8 -10 -7 -14t12 5z" />
<glyph unicode="&#xf6;" horiz-adv-x="371" d="M64 -17q88 13 205 114q60 51 89.5 94.5t32.5 81.5q0 2 -1 5l-2 6q-2 3 0 6q9 12 40 12q15 0 15 6q0 2 -15 4q-42 1 -74.5 2t-55.5 2q-2 1 -3.5 2t-3.5 2q-29 19 -45 18q-22 -1 -44 -22q-7 -4 -11 -4q-1 0 -38 -1q-23 -1 -26 -6t-3 -8q0 -6 9 -12.5t18 -11.5q6 -2 2 -9 q-132 -162 -134 -245q0 -8 4.5 -15t11 -12t14.5 -7.5t15 -1.5zM50 36q58 138 165 237q15 10 17 9q18 7 39 9.5t45 -0.5q45 -5 38 -35q-15 -73 -115 -162q-95 -87 -163 -98q-32 -6 -32 18q0 11 6 22zM376 421q0 3 -0.5 11t-1.5 16.5t-2.5 15.5t-4.5 9q-2 3 -8 2t-13.5 -4 t-13.5 -7t-8 -7t-2 -10t1.5 -15.5t3 -16t3.5 -10.5q3 -3 11 -2t15.5 4t13.5 7t6 7zM275 422q0 3 -0.5 11t-1 16.5t-2 15.5t-3.5 9q-3 3 -9 2t-13 -4t-13.5 -7t-8.5 -7t-1.5 -10t1.5 -15.5t3 -16t4 -10.5q3 -3 10 -2t14.5 4t13.5 7t6 7z" />
<glyph unicode="&#xf7;" horiz-adv-x="444" d="M218 274q52 2 105 6t93 15q9 4 16.5 11.5t-1.5 23.5q-5 8 -16.5 18.5t-19.5 11.5q-13 4 -2 -7q5 -3 9 -7t7 -6q5 -6 4 -10.5t-4.5 -7.5t-9.5 -5.5t-11 -3.5q-37 -12 -85 -15t-97 -2l-19 1q-38 2 -73 5.5t-63 8.5q-8 2 -19 6.5t-16 12.5q-1 2 -2.5 0t0.5 -9q2 -4 7 -9.5 t10.5 -11.5t11 -10.5t8.5 -5.5q23 -4 63 -6.5t88 -3.5h16zM237 396q-3 0 -11 -0.5t-17 -2t-16 -4t-9 -5.5q-3 -3 -1.5 -11.5t4.5 -18t6.5 -17.5t6.5 -10q3 -3 10 -3q8 0 16.5 1.5t16 4t10.5 4.5q3 4 2 14.5t-4 21t-7 18.5t-7 8zM241 241q-3 0 -11 -0.5t-16.5 -1t-16 -2.5 t-9.5 -5q-3 -4 -2 -12.5t4.5 -17.5t7.5 -17t7 -11q3 -2 10 -2q8 0 16 1.5t15.5 4t9.5 5.5q3 3 2.5 12.5t-3.5 19.5t-7 18t-7 8z" />
<glyph unicode="&#xf8;" horiz-adv-x="359" d="M-19 -61q4 14 16 33.5t35 46.5q8 -9 19.5 -16t23.5 -11t23 -5t19 2q38 17 79 52t77 79t62.5 92.5t37.5 93.5q4 20 -7 38q16 14 31 27t30 24q9 3 9 11q0 5 -7 5q-5 0 -13 -5q-14 -11 -29 -23t-31 -25q-17 17 -40 25q-8 2 -28 0.5t-37 -6.5q5 11 0.5 21t-19.5 0 q-18 -12 -41.5 -34t-48.5 -51.5t-49 -64t-41.5 -70t-26 -71t-3.5 -66.5q0 -4 1 -7t2 -5q-48 -60 -53 -87q0 -7 1 -11t1 -6q4 0 7 14zM343 306q-5 -33 -27.5 -75.5t-52.5 -84t-63 -75.5t-60 -49q-33 -17 -58 -14.5t-28 35.5q21 24 48.5 52.5t61.5 62.5q50 49 94.5 91t85.5 78 v-11q0 -5 -1 -10zM54 70q4 31 20 67.5t38.5 72.5t48.5 68t51 54q20 8 37.5 11.5t46.5 7.5q15 2 25.5 0.5t16.5 -9.5q-81 -71 -186 -177q-30 -30 -54.5 -56t-44.5 -48q0 6 1 9z" />
<glyph unicode="&#xf9;" horiz-adv-x="470" d="M561 -62q6 8 2 11t-11 -4q-12 -14 -29 -29t-36 -28.5t-39 -24t-37 -16.5q-35 -11 -58 1t-26 32q-5 32 0 71t16.5 80.5t28.5 83t34.5 79.5t35 69.5t30.5 52.5q4 5 3.5 14t-4.5 16.5t-11 9.5t-17 -6q-30 -27 -73.5 -70.5t-91.5 -89.5t-96 -87.5t-87 -65.5 q-27 -17 -38.5 -5.5t0.5 55.5q7 27 27 66.5t44.5 82t50 82.5t44.5 68q8 12 8 18t-4 7.5t-10.5 -1t-11.5 -8.5q-13 -15 -31.5 -40t-39.5 -55.5t-42.5 -65.5t-38.5 -68.5t-28.5 -64.5t-13.5 -55q-2 -33 20 -46t64 8q26 14 63 43.5t75 63.5t73 67t56 54q9 9 14.5 10t8.5 -2.5 t3 -10.5q0 -6 -3 -13q-5 -11 -15.5 -33.5t-22 -52t-23 -63.5t-19 -69.5t-8 -69.5t8.5 -63q4 -12 16.5 -23t28.5 -18.5t33.5 -11t32.5 1.5q19 5 40 17.5t40 28.5t35.5 34t28.5 33zM400 466q-23 21 -49.5 49.5t-49.5 53.5q-6 7 -13.5 5.5t-13 -6.5t-6 -13t8.5 -15 q15 -12 31 -24t31 -23.5t28.5 -21.5t23.5 -18q13 -10 16.5 -3t-7.5 16z" />
<glyph unicode="&#xfa;" horiz-adv-x="470" d="M561 -62q6 8 2 11t-11 -4q-12 -14 -29 -29t-36 -28.5t-39 -24t-37 -16.5q-35 -11 -58 1t-26 32q-5 32 0 71t16.5 80.5t28.5 83t34.5 79.5t35 69.5t30.5 52.5q4 5 3.5 14t-4.5 16.5t-11 9.5t-17 -6q-30 -27 -73.5 -70.5t-91.5 -89.5t-96 -87.5t-87 -65.5 q-27 -17 -38.5 -5.5t0.5 55.5q7 27 27 66.5t44.5 82t50 82.5t44.5 68q8 12 8 18t-4 7.5t-10.5 -1t-11.5 -8.5q-13 -15 -31.5 -40t-39.5 -55.5t-42.5 -65.5t-38.5 -68.5t-28.5 -64.5t-13.5 -55q-2 -33 20 -46t64 8q26 14 63 43.5t75 63.5t73 67t56 54q9 9 14.5 10t8.5 -2.5 t3 -10.5q0 -6 -3 -13q-5 -11 -15.5 -33.5t-22 -52t-23 -63.5t-19 -69.5t-8 -69.5t8.5 -63q4 -12 16.5 -23t28.5 -18.5t33.5 -11t32.5 1.5q19 5 40 17.5t40 28.5t35.5 34t28.5 33zM468 491q9 4 10.5 11t-2 13t-11 8t-15.5 -4q-13 -10 -30 -22t-34.5 -24t-34.5 -23t-30 -19 q-12 -5 -10 -13t17 0q11 6 28 14.5t36 19t39 20.5t37 19z" />
<glyph unicode="&#xfb;" horiz-adv-x="470" d="M561 -62q6 8 2 11t-11 -4q-12 -14 -29 -29t-36 -28.5t-39 -24t-37 -16.5q-35 -11 -58 1t-26 32q-5 32 0 71t16.5 80.5t28.5 83t34.5 79.5t35 69.5t30.5 52.5q4 5 3.5 14t-4.5 16.5t-11 9.5t-17 -6q-30 -27 -73.5 -70.5t-91.5 -89.5t-96 -87.5t-87 -65.5 q-27 -17 -38.5 -5.5t0.5 55.5q7 27 27 66.5t44.5 82t50 82.5t44.5 68q8 12 8 18t-4 7.5t-10.5 -1t-11.5 -8.5q-13 -15 -31.5 -40t-39.5 -55.5t-42.5 -65.5t-38.5 -68.5t-28.5 -64.5t-13.5 -55q-2 -33 20 -46t64 8q26 14 63 43.5t75 63.5t73 67t56 54q9 9 14.5 10t8.5 -2.5 t3 -10.5q0 -6 -3 -13q-5 -11 -15.5 -33.5t-22 -52t-23 -63.5t-19 -69.5t-8 -69.5t8.5 -63q4 -12 16.5 -23t28.5 -18.5t33.5 -11t32.5 1.5q19 5 40 17.5t40 28.5t35.5 34t28.5 33zM501 465q-11 17 -23 37.5t-25 38.5q-5 7 -16.5 8t-21.5 -6q-8 -5 -24.5 -15t-35.5 -22 t-37 -23.5t-30 -19.5q-10 -7 -7 -14t16 1q10 7 25 14.5t33 15.5t36.5 15.5t34.5 14.5q1 0 2.5 1t6.5 -2q10 -8 26 -23t27 -29q10 -11 14.5 -7.5t-1.5 15.5z" />
<glyph unicode="&#xfc;" horiz-adv-x="470" d="M561 -62q6 8 2 11t-11 -4q-12 -14 -29 -29t-36 -28.5t-39 -24t-37 -16.5q-35 -11 -58 1t-26 32q-5 32 0 71t16.5 80.5t28.5 83t34.5 79.5t35 69.5t30.5 52.5q4 5 3.5 14t-4.5 16.5t-11 9.5t-17 -6q-30 -27 -73.5 -70.5t-91.5 -89.5t-96 -87.5t-87 -65.5 q-27 -17 -38.5 -5.5t0.5 55.5q7 27 27 66.5t44.5 82t50 82.5t44.5 68q8 12 8 18t-4 7.5t-10.5 -1t-11.5 -8.5q-13 -15 -31.5 -40t-39.5 -55.5t-42.5 -65.5t-38.5 -68.5t-28.5 -64.5t-13.5 -55q-2 -33 20 -46t64 8q26 14 63 43.5t75 63.5t73 67t56 54q9 9 14.5 10t8.5 -2.5 t3 -10.5q0 -6 -3 -13q-5 -11 -15.5 -33.5t-22 -52t-23 -63.5t-19 -69.5t-8 -69.5t8.5 -63q4 -12 16.5 -23t28.5 -18.5t33.5 -11t32.5 1.5q19 5 40 17.5t40 28.5t35.5 34t28.5 33zM443 481q0 3 -0.5 11t-1.5 16t-2.5 15t-3.5 9q-2 3 -8.5 2t-13.5 -4t-13.5 -7t-7.5 -7 q-2 -3 -2 -10t1 -15.5t2.5 -16t3.5 -10.5q3 -3 11 -2t15.5 4t13.5 7.5t6 7.5zM342 482q0 3 -0.5 11l-1 16t-2 15t-3.5 9q-3 3 -9 2t-13 -4t-13.5 -7t-8.5 -7t-1.5 -10t1.5 -15.5t3 -16t4 -10.5q3 -3 10 -2t14.5 4t13.5 7.5t6 7.5z" />
<glyph unicode="&#xfd;" horiz-adv-x="668" d="M758 398q-8 20 -24.5 34t-31.5 21q-10 5 -13 1t6 -10q15 -9 27.5 -23.5t17.5 -31.5q3 -14 0.5 -29t-8.5 -28.5t-13 -25.5t-12 -19q-15 -24 -47 -52.5t-73.5 -58t-88.5 -57.5t-92 -51q8 37 13.5 84.5t2.5 92.5q7 17 4.5 29t-9.5 18t-16.5 5.5t-16.5 -8.5 q-23 -26 -58 -60.5t-74 -68t-77.5 -63t-67.5 -45.5q-32 -20 -45.5 -14t0.5 43q10 27 28.5 63.5t41 73.5t45 71t40.5 56q9 12 7 19.5t-9.5 9t-18 -3.5t-19.5 -18q-17 -23 -41.5 -59t-49 -77.5t-45 -85t-28.5 -82.5q-2 -10 3.5 -20t15.5 -17.5t22 -10t23 3.5q32 16 68.5 42 t72 56t68 61t56.5 56q33 36 36 -9q1 -14 0.5 -34.5t-2.5 -43t-5 -45t-6 -40.5q-62 -34 -130.5 -69.5t-139.5 -72t-141 -74.5t-135 -76t-122 -75.5t-101 -74.5q-38 -32 -60 -62.5t-29.5 -59t-2.5 -55t20 -50.5q17 -26 47 -41t68.5 -20.5t82 -3t88.5 11.5q123 25 221.5 92 t173 163.5t124.5 215t75 246.5q38 21 86 47.5t95 57t87 63.5t62 66q9 13 16.5 28.5t11.5 31t3.5 31.5t-7.5 31zM362 24q-22 -122 -72 -235t-122.5 -205t-164 -156.5t-196.5 -87.5q-36 -8 -76 -11t-75.5 2.5t-64 20.5t-42.5 44q-12 25 -10.5 52t12.5 52.5t29 48t38 40.5 q84 69 180.5 129.5t195 113.5t193 100.5t175.5 91.5zM301 480q19 7 42 15t46.5 15.5t45 14.5t36.5 12q8 2 9.5 9t-1 13.5t-8.5 11t-12 1.5l-35 -17.5t-43.5 -21.5t-44.5 -22t-40 -19q-7 -4 -4 -9.5t9 -2.5z" />
<glyph unicode="&#xfe;" horiz-adv-x="714" d="M539 882q-3 31 -13 64t-27 64t-41 57t-54 43q-44 22 -91 20t-84.5 -29.5t-59 -80.5t-13.5 -132q6 -65 41.5 -138.5t85.5 -148.5q17 -23 34.5 -47t35.5 -50q-51 23 -105.5 12.5t-107.5 -57.5q-24 -21 -45.5 -52t-37 -64.5t-24.5 -66.5t-9 -58q-1 -15 8.5 -16t8.5 13 q2 24 10 53t22 59t35 59.5t50 53.5q34 30 72 37.5t74.5 -3t69.5 -36.5t57 -63q-36 -40 -78.5 -88t-83.5 -94t-76.5 -85t-56.5 -61q-6 -6 -7.5 -11.5t0 -9t4.5 -3.5q4 0 9 5q35 38 76.5 83.5t83.5 90t80.5 83.5t68.5 65q25 -41 38 -100.5t9.5 -124.5t-25 -129t-65.5 -115 q-44 -50 -80 -74q-9 13 -16.5 36t-12.5 45t-8 37t-3 12q-2 -32 3 -68t19 -71q-31 -17 -57 -20q-5 0 -7.5 -3t-2 -7t3.5 -6.5t8 -2.5q30 2 64 20q12 -25 28 -46.5t38 -38.5q39 -30 86 -36t89 14.5t72 69.5t35 129q4 50 -12 111.5t-44.5 128t-64.5 135t-71 132.5l50.5 50.5 t92 94t123 127t144 149.5t155 162.5t156 164.5t147 156t128 137.5t99.5 109t61 70.5q59 78 103 135t72 100t39 75.5t4 61.5q-5 -2 -9 -22q-4 -38 -61.5 -122.5t-169.5 -218.5q-23 -27 -80.5 -89.5t-137.5 -147t-175 -183.5t-193 -200.5t-192 -198.5t-170.5 -176.5 t-130 -134.5t-70.5 -72q-10 14 -19.5 26t-20.5 23q-37 47 -79.5 103.5t-79.5 114.5t-63.5 114.5t-31.5 103.5q-8 63 8.5 111t49.5 74.5t77.5 28.5t94.5 -26q57 -33 92 -85t42 -108q2 -14 6.5 -15.5t2.5 11.5zM424 -131q28 34 49.5 78t34.5 93.5t16.5 101.5t-4.5 103 q29 -51 53.5 -101.5t42.5 -98t27.5 -92t8.5 -83.5q-2 -63 -25 -107.5t-59 -65.5t-80.5 -16t-88.5 41q-19 14 -34 31.5t-26 36.5q20 13 41.5 33t43.5 46z" />
<glyph unicode="&#xff;" horiz-adv-x="668" d="M758 398q-8 20 -24.5 34t-31.5 21q-10 5 -13 1t6 -10q15 -9 27.5 -23.5t17.5 -31.5q3 -14 0.5 -29t-8.5 -28.5t-13 -25.5t-12 -19q-15 -24 -47 -52.5t-73.5 -58t-88.5 -57.5t-92 -51q8 37 13.5 84.5t2.5 92.5q7 17 4.5 29t-9.5 18t-16.5 5.5t-16.5 -8.5 q-23 -26 -58 -60.5t-74 -68t-77.5 -63t-67.5 -45.5q-32 -20 -45.5 -14t0.5 43q10 27 28.5 63.5t41 73.5t45 71t40.5 56q9 12 7 19.5t-9.5 9t-18 -3.5t-19.5 -18q-17 -23 -41.5 -59t-49 -77.5t-45 -85t-28.5 -82.5q-2 -10 3.5 -20t15.5 -17.5t22 -10t23 3.5q32 16 68.5 42 t72 56t68 61t56.5 56q33 36 36 -9q1 -14 0.5 -34.5t-2.5 -43t-5 -45t-6 -40.5q-62 -34 -130.5 -69.5t-139.5 -72t-141 -74.5t-135 -76t-122 -75.5t-101 -74.5q-38 -32 -60 -62.5t-29.5 -59t-2.5 -55t20 -50.5q17 -26 47 -41t68.5 -20.5t82 -3t88.5 11.5q123 25 221.5 92 t173 163.5t124.5 215t75 246.5q38 21 86 47.5t95 57t87 63.5t62 66q9 13 16.5 28.5t11.5 31t3.5 31.5t-7.5 31zM362 24q-22 -122 -72 -235t-122.5 -205t-164 -156.5t-196.5 -87.5q-36 -8 -76 -11t-75.5 2.5t-64 20.5t-42.5 44q-12 25 -10.5 52t12.5 52.5t29 48t38 40.5 q84 69 180.5 129.5t195 113.5t193 100.5t175.5 91.5zM422 453q0 3 -0.5 11t-1.5 16t-2.5 15.5t-3.5 9.5q-2 3 -8.5 2t-13.5 -4.5t-13.5 -7.5t-7.5 -7q-2 -2 -2 -10q0 -7 1 -15t2.5 -15.5t3.5 -10.5q3 -3 11 -2t15.5 4t13.5 7t6 7zM321 454v11t-1 16.5t-2 15.5t-3 9 q-3 3 -9.5 2t-13.5 -4t-13 -7t-8 -7t-2 -10t1 -15.5t3 -16t4 -10.5q3 -3 10 -2t14.5 4t13.5 7t6 7z" />
<glyph unicode="&#x152;" horiz-adv-x="913" d="M968 641q5 5 5 14t-4 17.5t-10 16t-12.5 13.5t-10.5 8h-1q-14 8 -37 12t-49 4q-20 0 -41.5 -2.5t-39.5 -7.5l-6 3q-4 10 -9 19t-13 9q-2 0 -8 -2v-1q-8 -2 -16.5 -12t-16.5 -23l-3 -2q-12 -4 -32 -12t-29 -13q-8 -8 -8 -14q0 -9 3 -13q10 -15 10 -26q0 -5 -1 -9.5 t-6 -9.5q-2 -3 -4 -6.5l-6 -10.5q-8 -14 -17.5 -30t-16.5 -30l-9 3q2 10 2.5 24t0.5 26v5q0 37 -10 67t-27.5 51t-41 32t-50.5 11q-12 0 -27 -3l-6 5q-1 10 -7 14.5t-14 4.5q-11 0 -27 -7q-33 -17 -72.5 -53t-79 -85t-77 -107.5t-66 -121t-46 -126.5t-17.5 -123 q0 -8 0.5 -17t1.5 -17q4 -41 18 -69t33 -44.5t40.5 -23.5t41.5 -7q7 0 14 1t13 3q59 20 121.5 72.5t128.5 140.5l9 -5q-9 -29 -15.5 -57.5t-6.5 -47.5v-7q0 -15 3 -30.5t9.5 -28.5t16 -21.5t23.5 -8.5h15q33 0 73 3t77 8t67 12t43 16h1q18 10 18 17q0 2 -5 2t-18 -5 q-9 -5 -26.5 -9t-41 -7t-50 -4.5t-53.5 -1.5q-32 0 -59.5 2.5t-46.5 8.5q-19 7 -25 11.5t-6 18.5v9t1 11q0 2 0.5 2.5t0.5 2.5q2 25 11.5 57.5t23 68.5t29 73t29.5 70q4 9 7.5 17t6.5 16l3 2q16 9 38.5 16t46 12t47 8t41.5 3q24 0 35 -4q3 -1 6 -1q8 0 8 3q0 4 -16 7 q-14 4 -35 5.5t-44 1.5q-26 0 -50 -2.5t-42 -8.5l-7 7q13 30 30 61t35.5 61.5t38.5 59t38 52.5l2 2q33 13 74 19.5t77 6.5q44 0 68 -9q28 -9 28 -27q0 -10 -7 -21q-3 -8 -3 -11v-1q6 0 18 16v1zM558 586q0 -60 -19 -124.5t-50 -127.5t-71 -120.5t-83 -103t-85 -76.5t-76 -40 q-9 -2 -19.5 -4.5t-23.5 -2.5q-15 0 -30 5t-28 19t-21.5 38.5t-9.5 62.5v8q0 54 16 113.5t42.5 119t61.5 116.5t73.5 106.5t78 89t74.5 63.5l2 1q16 4 38 4q24 0 47.5 -7.5t41.5 -25t29.5 -45.5t11.5 -69z" />
<glyph unicode="&#x153;" horiz-adv-x="561" d="M663 238q5 5 1 7t-10 -3q-10 -11 -27 -19.5t-37 -12.5q-28 -3 -74 -3.5t-91 -0.5q39 8 73 24t49 38q6 13 5 28.5t-8.5 28.5t-20.5 19t-30 0q-49 -19 -107 -77q2 5 2 10q0 6 1 11q0 5 -2 11q-2 3 0 7q10 12 40 12q15 0 15 5q0 3 -15 5q-86 2 -130 3q-5 1 -7 4 q-27 20 -45 18q-22 -1 -44 -22q-8 -3 -11 -3q-1 0 -38 -1q-23 -1 -26 -6t-3 -9q0 -5 8.5 -11.5t18.5 -12.5q5 -2 2 -9q-132 -162 -134 -245q0 -8 4.5 -14.5t11 -11.5t14.5 -7.5t15 -1.5q89 14 205 113q6 5 12 10.5t11 10.5q-8 -20 -13 -39.5t-6 -39.5q-1 -17 7 -31.5 t21 -25.5t28.5 -16.5t29.5 -2.5q16 1 32.5 7.5t31.5 14t28 16t23 14.5q7 5 3.5 8.5t-11.5 -1.5q-23 -13 -55 -25.5t-60 -15.5q-11 -2 -22 0t-19.5 8.5t-13 18.5t-2.5 31q2 39 22.5 75.5t40.5 63.5h61q35 0 68.5 0.5t62 2t42.5 3.5q25 4 44.5 17t28.5 22zM48 52 q60 137 165 236q15 10 18 9q35 15 84 10q45 -5 38 -35q-15 -73 -115 -163q-95 -86 -163 -98q-32 -5 -32 19q0 9 5 22zM525 277q-23 -30 -67.5 -50.5t-92.5 -20.5q29 32 62.5 61t65.5 49q12 6 22 6t15.5 -5.5t4.5 -16t-10 -23.5z" />
<glyph unicode="&#x178;" horiz-adv-x="566" d="M697 616q4 7 1.5 17.5t-7.5 18t-12.5 9t-14.5 -9.5q-6 -12 -17.5 -28.5t-25 -34t-26 -34.5t-21.5 -30q-8 -12 -8 -23v-22q-14 -28 -41.5 -72.5t-60 -92.5t-66.5 -94t-61 -77q-6 36 -16.5 86t-25 106.5t-33 115t-41.5 111t-50.5 94.5t-58.5 66q-23 18 -51.5 16.5 t-55 -14.5t-48.5 -34.5t-33 -43.5q-11 -26 -8 -56.5t8 -50.5q5 -14 12 -14q6 0 5 17q-2 29 2.5 56.5t15.5 53.5q21 46 58 58t75 -21q27 -24 52.5 -68.5t48 -100t41.5 -117.5t32 -121t20.5 -110t6.5 -85q-21 -27 -50 -61t-62.5 -71t-69.5 -73.5t-71 -68t-68.5 -55 t-60.5 -34.5q-25 -10 -37 -2.5t-7 27.5q2 15 7 31l10 32t10.5 30t8.5 23q5 11 2 12.5t-11 -7.5q-7 -10 -16 -23t-17 -28t-15 -31t-9 -31q-1 -12 5 -23.5t15 -20.5t19.5 -14.5t18.5 -3.5q37 8 89 46t111 93.5t120 123t117 134.5q31 38 67 84.5t73 96.5t72 100t65 95.5t53 84 t35 63.5zM499 773q0 3 -0.5 11t-1.5 16.5t-2.5 15.5t-3.5 9q-2 3 -8.5 2t-13.5 -4t-13.5 -7t-7.5 -7q-2 -3 -2 -10t1 -15.5t2.5 -16t3.5 -10.5q3 -3 11 -2t15.5 4t13.5 7t6 7zM398 774v11t-1 16.5t-2 15.5t-3 9q-3 3 -9.5 2t-13.5 -4t-13 -7t-8 -7t-2 -10t1 -15.5t3 -16 t4 -10.5q3 -3 10 -2t14.5 4t13.5 7t6 7z" />
<glyph unicode="&#x2c6;" horiz-adv-x="312" d="M180 549q9 1 43 -19q13 -8 25.5 -16t25.5 -16q4 -4 9 -3q5 2 5 6q0 3 -4 7q-94 78 -100 80q-2 2 -60 -30q-68 -39 -86 -46q-5 -7 -5 -9q0 -10 12 -2q81 34 135 48z" />
<glyph unicode="&#x2dc;" horiz-adv-x="296" d="M28 502l23 13q23 13 46 13q13 0 54 -18q38 -16 53 -16q21 0 59 38q5 8 5 11t-3 3t-11 -6q-16 -16 -50 -16q-8 0 -21.5 3.5t-34.5 12.5l-32.5 13t-18.5 5q-20 0 -64 -42q-7 -11 -7 -12q0 -2 2 -2z" />
<glyph unicode="&#x2000;" horiz-adv-x="985" />
<glyph unicode="&#x2001;" horiz-adv-x="1971" />
<glyph unicode="&#x2002;" horiz-adv-x="985" />
<glyph unicode="&#x2003;" horiz-adv-x="1971" />
<glyph unicode="&#x2004;" horiz-adv-x="657" />
<glyph unicode="&#x2005;" horiz-adv-x="492" />
<glyph unicode="&#x2006;" horiz-adv-x="328" />
<glyph unicode="&#x2007;" horiz-adv-x="328" />
<glyph unicode="&#x2008;" horiz-adv-x="246" />
<glyph unicode="&#x2009;" horiz-adv-x="394" />
<glyph unicode="&#x200a;" horiz-adv-x="109" />
<glyph unicode="&#x2010;" horiz-adv-x="229" d="M37 166h147q26 0 26 17q0 10 -17 10h-141q-32 0 -32 -18q0 -9 17 -9z" />
<glyph unicode="&#x2011;" horiz-adv-x="229" d="M37 166h147q26 0 26 17q0 10 -17 10h-141q-32 0 -32 -18q0 -9 17 -9z" />
<glyph unicode="&#x2012;" horiz-adv-x="229" d="M37 166h147q26 0 26 17q0 10 -17 10h-141q-32 0 -32 -18q0 -9 17 -9z" />
<glyph unicode="&#x2013;" horiz-adv-x="334" d="M56 170h119t101 2q30 0 30 14q0 8 -21 8h-210q-38 0 -38 -16q0 -8 19 -8z" />
<glyph unicode="&#x2014;" horiz-adv-x="574" d="M91 173h427q25 0 25 7q0 6 -18 6h-425q-29 0 -29 -8q0 -5 20 -5z" />
<glyph unicode="&#x2018;" horiz-adv-x="132" d="M106 590q-86 -75 -103 -122q-3 -11 4 -33q6 -24 14 -25q5 -2 24 11q20 15 16 21q-6 13 -9.5 22t-1.5 17q4 55 64 98q4 3 4 6q0 7 -7 7q-3 0 -5 -2z" />
<glyph unicode="&#x2019;" horiz-adv-x="178" d="M218 408q64 90 102 138q3 4 3 7q0 19 -23 19q-10 0 -14 -8l-80 -149q-1 -1 -1 -5q0 -3 5 -5t8 3z" />
<glyph unicode="&#x201a;" horiz-adv-x="158" d="M30 -58q84 72 102 122q3 9 -3 33q-8 23 -15 24q-7 2 -25 -12q-19 -14 -14 -20q5 -12 8.5 -21t2.5 -17q-6 -58 -65 -98q-3 -5 -3 -7q0 -7 6 -7q3 0 6 3z" />
<glyph unicode="&#x201c;" horiz-adv-x="268" d="M245 580q-85 -74 -102 -122q-3 -11 3 -33q7 -22 15 -25q5 -2 24 11q20 16 15 21q-5 13 -8.5 22t-2.5 17q6 56 65 98q3 3 3 6q0 7 -6 7q-4 0 -6 -2zM123 580q-85 -74 -102 -122q-3 -11 3 -33q7 -22 14 -25q6 -2 25 11q19 15 15 21q-12 26 -11 39q5 56 65 98q3 3 3 6 q0 7 -6 7q-4 0 -6 -2z" />
<glyph unicode="&#x201d;" horiz-adv-x="279" d="M161 404q84 72 102 122q3 9 -3 33q-8 23 -15 24q-7 2 -25 -12q-19 -15 -14 -20q5 -12 8.5 -21.5t2.5 -16.5q-6 -57 -65 -98q-4 -4 -4 -7q0 -6 7 -6q2 0 6 2zM38 404q85 71 103 122q3 10 -4 33q-6 23 -14 24q-7 2 -25 -12q-19 -15 -14 -20q5 -12 8.5 -21.5t2.5 -16.5 q-6 -57 -65 -98q-4 -4 -4 -7q0 -6 7 -6q3 0 5 2z" />
<glyph unicode="&#x201e;" horiz-adv-x="275" d="M154 -59q84 72 102 122q3 9 -3 33q-6 22 -14 24q-7 2 -26 -12t-14 -20q12 -26 11 -38q-5 -57 -65 -98q-3 -5 -3 -7q0 -7 6 -7q4 0 6 3zM32 -59q84 72 102 122q3 9 -3 33q-6 22 -14 24q-7 2 -26 -12t-14 -20q12 -26 11 -38q-5 -57 -65 -98q-3 -5 -3 -7q0 -7 6 -7q4 0 6 3z " />
<glyph unicode="&#x2022;" horiz-adv-x="212" d="M172 229q0 29 -18.5 47.5t-47.5 18.5q-28 0 -47 -18.5t-19 -47.5q0 -27 19 -46.5t47 -19.5q29 0 47.5 19.5t18.5 46.5z" />
<glyph unicode="&#x2026;" horiz-adv-x="612" d="M340 42q0 3 -0.5 11t-1.5 16t-2.5 15.5t-4.5 9.5q-2 3 -8 1.5t-13.5 -4.5t-13.5 -7t-8 -7t-2 -10t1 -15.5t3 -16t4 -10.5q3 -3 10.5 -2t15.5 4t14 7.5t6 7.5zM560 38q0 3 -0.5 11t-1.5 16.5t-2.5 15.5t-4.5 9q-2 3 -8 2t-13.5 -4t-13.5 -7t-8 -7t-2 -10t1 -15.5t3 -16 t4 -10.5q3 -3 10.5 -2t15.5 4t14 7t6 7zM114 42v11t-1 16t-2 15.5t-3 9.5q-3 3 -9.5 1.5t-13.5 -4.5t-13 -7t-8 -7t-2 -10t1 -15.5t3 -16t4 -10.5q3 -3 10 -2t14.5 4t13.5 7.5t6 7.5z" />
<glyph unicode="&#x202f;" horiz-adv-x="394" />
<glyph unicode="&#x2039;" horiz-adv-x="218" d="M73 158q8 16 38 45t84 71q6 6 3 10q-1 4 -11 -2q-23 -15 -45.5 -30t-45.5 -30q-57 -38 -62 -49q-4 -9 30 -139q2 -9 6 -9q8 0 6 11q-12 106 -3 122z" />
<glyph unicode="&#x203a;" horiz-adv-x="227" d="M168 150q-5 -11 -36.5 -39t-89.5 -76q-4 -4 -4 -6q0 -6 7 -6q4 0 9 3q23 15 45.5 30t45.5 30q57 38 62 49q4 9 -30 139q-2 9 -7 9q-7 0 -5 -11q12 -104 3 -122z" />
<glyph unicode="&#x205f;" horiz-adv-x="492" />
<glyph unicode="&#x2122;" horiz-adv-x="748" d="M451 619q-1 4 -7.5 8.5t-14.5 9t-16.5 8t-13.5 4.5q-6 1 -8 0.5t-7 -3.5q-30 7 -72 12.5t-88 5.5t-91.5 -8t-82.5 -28q-27 -15 -38.5 -36.5t-6.5 -42.5q7 -28 27 -45q4 -2 5.5 -1t-1.5 3q-6 6 -13.5 16t-8.5 27q-2 18 7.5 34t33.5 30q27 14 63 20.5t71.5 8.5t66 0 t46.5 -5q-1 -7 -7 -19.5t-11 -23.5q-11 -16 -30.5 -46.5t-40.5 -66t-38.5 -72t-23.5 -63.5q-3 0 -3 -4q-2 -11 -1.5 -21t5.5 -17q1 -8 6 -9q11 -14 38 -12.5t56 19.5q27 16 55 42t57.5 58t58.5 69t57 76q-6 -21 -13.5 -47.5t-13.5 -53t-10 -49t-3 -35.5q2 -17 19 -26t37 6 q22 16 43 39.5t40.5 50t38 53.5t34.5 51q-9 -24 -18.5 -50.5t-17.5 -52.5t-13 -50t-5 -43q-2 -18 7.5 -30.5t23.5 -14.5t22 5q2 3 1 5t-3 0q-6 -5 -17 -3q-12 2 -16 14t-2 28q2 23 10.5 52.5t19.5 61t24.5 63.5t26.5 59q14 18 26 37.5t14 33.5q2 8 -6 12.5t-13 -0.5 q-12 -11 -23 -34t-22 -47q-6 -11 -17.5 -29.5t-27.5 -40t-34 -45t-36 -45.5t-35 -40t-30 -29q-19 -14 -26 -9.5t-5 21.5q1 25 7 55.5t14.5 62t17.5 61t17 50.5q8 8 14 22.5t6 26.5q0 8 -7.5 11t-12.5 -5t-10 -21t-9 -26q-18 -29 -48.5 -71.5t-66 -85.5t-72 -80t-66.5 -55 q-50 -30 -77 -13q3 3 -2 3q-6 3 -6.5 12t-0.5 15q6 27 23 62t39 71.5t45.5 71t40.5 60.5q5 12 11 23t1 19q32 -2 69 -10t57 -21q5 -6 8 2.5t-1 13.5z" />
<glyph unicode="&#xe000;" horiz-adv-x="330" d="M0 330h330v-330h-330v330z" />
<glyph unicode="&#xfb04;" horiz-adv-x="0" d="M-380 -39q-2 -5 -1 -10t3 -8.5t5 -4t6 4.5q22 42 49 91.5t55.5 100t56 99t51 89t40.5 69.5t24 41q73 -2 167.5 5t204.5 28t233.5 58t253.5 96q79 36 127 82t69.5 95.5t18.5 99.5t-26 93.5t-64 77t-96.5 50t-122.5 13t-142 -34.5q-71 -29 -136 -72t-124.5 -94t-111.5 -107 t-97 -110q-88 -1 -183 -72q-36 -27 -75.5 -75.5t-85.5 -118.5h-224q17 28 36.5 63t44 67t55 56.5t71.5 30.5q23 4 45.5 -5.5t39.5 -26.5q2 -2 5.5 0.5t6.5 7t5 9.5t2 7q0 5 -8.5 14.5t-19.5 11.5q-27 4 -47 4t-38 -4.5t-35.5 -14.5t-38.5 -26q-22 -17 -44.5 -40t-43.5 -49 t-40.5 -53t-35.5 -52q-12 -1 -23 -0.5t-22 0.5q-6 0 -16 0.5t-12 -7.5q-4 -9 5.5 -13.5t17.5 -9.5q7 -5 14 -15t-1 -24q-30 -56 -82 -150t-124 -204q-80 4 -184.5 -1.5t-219 -25.5t-232 -56.5t-223.5 -93.5q-75 -40 -121.5 -87t-68 -95.5t-20.5 -95.5t21.5 -88t58.5 -72.5 t89.5 -49t115.5 -17.5t136 22q55 -21 124 -21q78 0 162 30q94 33 190.5 107.5t200.5 191.5q42 48 84.5 101.5t85.5 115.5q144 24 183 66q3 3 3 10q0 11 -7 24.5t-16 21.5q-1 1 -2 1.5t-2 1.5q-2 1 -3.5 2.5t-3.5 1.5q-14 2 -28.5 3t-30.5 2q12 20 24.5 40.5t25.5 42.5 q48 78 96 157t91 158q5 8 17 8q36 0 64 -1t51 1l-13 -23q-23 -39 -47.5 -83.5t-49 -89.5t-47.5 -88t-42 -79.5t-33 -64t-21 -40.5zM-83 450q31 52 69.5 110.5t83.5 120.5q1 0 2 -0.5t2 -0.5q28 -17 26 -19q6 0 12 10t6 14q-1 8 -8 14.5t-18 10.5q44 56 94.5 111t107 104 t118 90t127.5 68q54 22 111 25.5t108.5 -8t95.5 -36.5t72 -60t37.5 -77.5t-8 -88.5t-64 -94.5t-130.5 -95.5q-125 -70 -249.5 -109.5t-236 -59.5t-204.5 -24.5t-154 -4.5zM-1495 -584q-84 57 -84 144q0 133 208 254q131 76 273 123.5t297 65.5q-59 -91 -129 -185 t-148.5 -178t-164 -151t-175.5 -105q-3 -1 -11 -3q-17 6 -33.5 15t-32.5 20zM-978 -11q-231 -46 -407 -141q-210 -113 -210 -275q0 -96 79 -163q29 -23 62 -38q-53 -16 -106 -16q-54 0 -101.5 13.5t-86.5 38.5t-62.5 59t-29 74.5t13.5 85.5t66 92t128 94q116 67 233 107.5 t224.5 62t200 27.5t159.5 4q-41 -4 -81 -10.5t-82 -14.5zM-1156 -615q-69 -29 -143 -29q-56 0 -109 17q77 28 151.5 81t145 121.5t136.5 148.5t125 163q31 5 60.5 13t54 17t42 18.5t26.5 18.5q4 5 3.5 13.5t-5 17.5t-10.5 16.5t-12 11.5q51 3 101 3q15 0 29 -0.5t27 -0.5 q-325 -503 -622 -630zM-289 429q1 0 1.5 -0.5l0.5 -0.5h-2q-1 -3 -5 -11t-8 -16.5t-8 -16t-5 -9.5q-50 -100 -105.5 -185t-106.5 -165l-34 2t-35 1q-38 0 -74 -2t-74 -4h-6t-8 1q42 65 78.5 125.5t66.5 112.5t52.5 93t37.5 67q2 3 5.5 5.5t11.5 2.5q40 2 75.5 0t70.5 0h17 h21h20h13zM-121 447l-125 4q26 51 59.5 93.5t69 73.5t69.5 50.5t61 25.5q16 3 34 -2q-63 -79 -105.5 -144.5t-62.5 -100.5zM-503 14q18 -2 33 -3q8 -1 15 -2l14 -2q20 -5 20 -19q0 -10 -10 -20q-61 -51 -150 -69q20 28 39.5 56.5t38.5 58.5zM-768 7q8 1 15 2t14 1 q21 -1 37 -5q19 -3 20 -16t-10 -22q-7 -5 -20.5 -14.5t-32.5 -19.5t-44 -19.5t-54 -15.5q20 28 39 55t36 54zM-298 416l9 12q-4 -1 -7.5 -3.5t-1.5 -8.5zM-139 409q1 0 1 2q0 -1 -0.5 -1.5z" />
</font>
</defs>
</svg>
